Сегодня идет свободное скачивание без начисления Download

(Power Metal) Cryonic Temple - Deliverance (Japanese Edition) - 2018 [FLAC, image +.cue, lossless]

Ответить на тему
 
Автор
Сообщение

sergej644 ®

Пол:

Стаж: 6 лет 2 месяца

Сообщений: 591

Торрент-статистика

Пост 24-Авг-2018 10:32

[Цитировать]

-Cryonic Temple - Deliverance (Japanese Edition)--
Год издания: 2018
Страна: Sweden
Жанр: Power Metal
Продолжительность: 01:07:17-Лейбл издания: King Records
Страна-выпуска диска: Japan
Номер по каталогу: KICP 1920-Формат: FLAC
Битрейт аудио: Lossless
Тип рипа: image +.cue
Наличие сканов в содержимом раздачи: да
-

Трэклист


01. Intro: The Morning After The Longest Day (2:29)
02. Rise Eternally Beyond (5:07)
03. Through The Storm (4:52)
04. Knights Of The Sky (5:27)
05. Deliverance (4:21)
06. Loneliest Man In Space (5:04)
07. Pain And Pleasure (3:40)
08. Temple Of Cryonics (5:12)
09. Starchild (4:23)
10. End Of Days (4:06)
11. Swansong Of The Last Emperor (4:29)
12. Under Attack (4:09)
13. Blood And Shame (3:46)
14. Insomnia (5:39)
15. Walking With Fire (Bonus Track) (4:30)
-

Лог создания рипа

Код:
Exact Audio Copy V1.3 from 2. September 2016
EAC extraction logfile from 20. August 2018, 19:10
Cryonic Temple / Deliverance (Japan)
Used drive  : ATAPI   iHAS122   W   Adapter: 2  ID: 0
Read mode               : Secure
Utilize accurate stream : Yes
Defeat audio cache      : Yes
Make use of C2 pointers : No
Read offset correction                      : 48
Overread into Lead-In and Lead-Out          : No
Fill up missing offset samples with silence : Yes
Delete leading and trailing silent blocks   : No
Null samples used in CRC calculations       : Yes
Used interface                              : Installed external ASPI interface
Used output format              : User Defined Encoder
Selected bitrate                : 1024 kBit/s
Quality                         : High
Add ID3 tag                     : No
Command line compressor         : C:\Program Files\FLAC\flac.exe
Additional command line options : -V -8 -T "Date=%year%" -T "Genre=%genre%" -T"COMMENT=Ripped by  Ilijan [MeTaLMaDNeSS.TeaM]" -8 -V %source%
TOC of the extracted CD
     Track |   Start  |  Length  | Start sector | End sector
    ---------------------------------------------------------
        1  |  0:00.00 |  2:28.42 |         0    |    11141
        2  |  2:28.42 |  5:07.20 |     11142    |    34186
        3  |  7:35.62 |  4:52.21 |     34187    |    56107
        4  | 12:28.08 |  5:27.36 |     56108    |    80668
        5  | 17:55.44 |  4:21.05 |     80669    |   100248
        6  | 22:16.49 |  5:04.15 |    100249    |   123063
        7  | 27:20.64 |  3:40.36 |    123064    |   139599
        8  | 31:01.25 |  5:12.05 |    139600    |   163004
        9  | 36:13.30 |  4:23.24 |    163005    |   182753
       10  | 40:36.54 |  4:06.20 |    182754    |   201223
       11  | 44:42.74 |  4:29.36 |    201224    |   221434
       12  | 49:12.35 |  4:09.21 |    221435    |   240130
       13  | 53:21.56 |  3:45.59 |    240131    |   257064
       14  | 57:07.40 |  5:39.00 |    257065    |   282489
       15  | 62:46.40 |  4:30.10 |    282490    |   302749
Range status and errors
Selected range
     Filename D:\Vknish+Devastator+ungern666+deminbek=Swolo4 (Upload On Rutracker, DIE!!!)\Cryonic Temple - Deliverance (Japan).wav
     Peak level 100.0 %
     Extraction speed 4.5 X
     Range quality 100.0 %
     Test CRC 6A8177AF
     Copy CRC 6A8177AF
     Copy OK
No errors occurred
AccurateRip summary
Track  1  not present in database
Track  2  not present in database
Track  3  not present in database
Track  4  not present in database
Track  5  not present in database
Track  6  not present in database
Track  7  not present in database
Track  8  not present in database
Track  9  not present in database
Track 10  not present in database
Track 11  not present in database
Track 12  not present in database
Track 13  not present in database
Track 14  not present in database
Track 15  not present in database
None of the tracks are present in the AccurateRip database
End of status report

Индексная карта (non-compilant .cue)

Код:
REM GENRE "Power Metal"
REM DATE 2018
REM DISCID DB0FC40F
REM COMMENT "ExactAudioCopy v1.3"
PERFORMER "Cryonic Temple"
TITLE "Deliverance (Japan)"
FILE "Cryonic Temple - Deliverance (Japan).flac" WAVE
  TRACK 01 AUDIO
    TITLE "Intro: The Morning After The Longest Day"
    PERFORMER "Cryonic Temple"
    INDEX 01 00:00:00
  TRACK 02 AUDIO
    TITLE "Rise Eternally Beyond"
    PERFORMER "Cryonic Temple"
    INDEX 01 02:28:42
  TRACK 03 AUDIO
    TITLE "Through The Storm"
    PERFORMER "Cryonic Temple"
    INDEX 00 07:33:62
    INDEX 01 07:35:62
  TRACK 04 AUDIO
    TITLE "Knights Of The Sky"
    PERFORMER "Cryonic Temple"
    INDEX 00 12:26:08
    INDEX 01 12:28:08
  TRACK 05 AUDIO
    TITLE "Deliverance"
    PERFORMER "Cryonic Temple"
    INDEX 01 17:55:44
  TRACK 06 AUDIO
    TITLE "Loneliest Man In Space"
    PERFORMER "Cryonic Temple"
    INDEX 00 22:14:49
    INDEX 01 22:16:49
  TRACK 07 AUDIO
    TITLE "Pain And Pleasure"
    PERFORMER "Cryonic Temple"
    INDEX 01 27:20:64
  TRACK 08 AUDIO
    TITLE "Temple Of Cryonics"
    PERFORMER "Cryonic Temple"
    INDEX 01 31:01:25
  TRACK 09 AUDIO
    TITLE "Starchild"
    PERFORMER "Cryonic Temple"
    INDEX 00 36:12:30
    INDEX 01 36:13:30
  TRACK 10 AUDIO
    TITLE "End Of Days"
    PERFORMER "Cryonic Temple"
    INDEX 00 40:34:54
    INDEX 01 40:36:54
  TRACK 11 AUDIO
    TITLE "Swansong Of The Last Emperor"
    PERFORMER "Cryonic Temple"
    INDEX 00 44:40:74
    INDEX 01 44:42:74
  TRACK 12 AUDIO
    TITLE "Under Attack"
    PERFORMER "Cryonic Temple"
    INDEX 01 49:12:35
  TRACK 13 AUDIO
    TITLE "Blood And Shame"
    PERFORMER "Cryonic Temple"
    INDEX 00 53:20:56
    INDEX 01 53:21:56
  TRACK 14 AUDIO
    TITLE "Insomnia"
    PERFORMER "Cryonic Temple"
    INDEX 00 57:05:40
    INDEX 01 57:07:40
  TRACK 15 AUDIO
    TITLE "Walking With Fire (Bonus Track)"
    PERFORMER "Cryonic Temple"
    INDEX 00 62:44:40
    INDEX 01 62:46:40
-

для ознакомления:

--

_________________
Вне форума [Профиль] [ЛС]
Похожие темы
Форум Тема Автор Торрент Отв. Посл. сообщение
./templates/default/images/folder_dl.gif Metal (Power Metal) Guardians Of Time - Discography [4 CD] - 2001-2015, MP3, 320 kbps Omen
1 | 0

0 | 2354

16

2015-05-20 00:03
Omen Последнее
./templates/default/images/folder_dl.gif Metal (Power metal) DragonForce - In The Line Of Fire - 2015, MP3, 320 kbps Omen
1 | 0

0 | 1671

19

2015-07-10 00:25
Omen Последнее
./templates/default/images/folder_dl.gif Metal (Power Metal) [CD] Dawn Of Destiny - Дискография (7CD\'s): 2007-2015, FLAC (image+.cue), lossless Omen
0 | 1

0 | 1230

9

2015-10-28 00:07
Omen Последнее
./templates/default/images/folder_dl.gif Metal (Power Metal) Derdian - DNA (Japanese Edition) - 2018 [FLAC, image +.cue, lossless] sergej644
1 | 0

0 | 252

3

2018-08-24 10:29
sergej644 Последнее
Показать сообщения:    
Ответить на тему

Текущее время: Сегодня 05:41

Часовой пояс: GMT + 3



Вы не можете начинать темы
Вы не можете отвечать на сообщения
Вы не можете редактировать свои сообщения
Вы не можете удалять свои сообщения
Вы не можете голосовать в опросах
Вы не можете прикреплять файлы к сообщениям
Вы не можете скачивать файлы