Сегодня идет свободное скачивание без начисления Download

Мстители: Война бесконечности / Avengers: Infinity War (Энтони Руссо, Джо Руссо) [2018 г., фантастика, фэнтези, боевик, приключения, BDRip 720p] [Android] DUB (iTunes)

Ответить на тему
 
Автор
Сообщение

Theseus ®

Пол:

Стаж: 7 лет 6 месяцев

Сообщений: 1995

Торрент-статистика

Пост 03-Авг-2018 17:11

[Цитировать]

-Мстители: Война бесконечности / Avengers: Infinity War -Год выхода: 2018
Страна: США
Жанр: фантастика, фэнтези, боевик, приключения
Продолжительность: 02:29:41
Перевод: Профессиональный (полное дублирование) | iTunes
Субтитры: Русские (форсированные)-Режиссер: Энтони Руссо, Джо Руссо-В ролях: Роберт Дауни мл., Крис Хемсворт, Марк Руффало, Крис Эванс, Скарлетт Йоханссон, Дон Чидл, Бенедикт Камбербэтч, Том Холланд, Чэдвик Боузмэн, Зои Салдана-О фильме: Пока Мстители и их союзники продолжают защищать мир от различных опасностей, с которыми не смог бы справиться один супергерой, новая угроза возникает из космоса: Танос. Межгалактический тиран преследует цель собрать все шесть Камней Бесконечности — артефакты невероятной силы, с помощью которых можно менять реальность по своему желанию. Всё, с чем Мстители сталкивались ранее, вело к этому моменту — судьба Земли никогда ещё не была столь неопределённой.- -Качество: BDRip 720p
Формат: MP4
Видео кодек: x.264
Аудио кодек: AAC
Видео: AVC, 1280x534 (2.40:1), 23.976 fps, 1 050 Kbps
Аудио: HE-AAC / LC, 48.0 KHz, 2 ch, 128 Kbps-

MI

Код:
Общее
Полное имя                               : Avengers.Infinity.War.2018.BDRip.720p.mp4
Формат                                   : MPEG-4
Профиль формата                          : Base Media
Идентификатор кодека                     : isom (isom/iso2/avc1/mp41)
Размер файла                             : 1,23 Гбайт
Продолжительность                        : 2 ч. 29 м.
Режим общего битрейта                    : Переменный
Общий поток                              : 1180 Кбит/сек
HDVideo                                  : Yes
Видео
Идентификатор                            : 1
Формат                                   : AVC
Формат/Информация                        : Advanced Video Codec
Профиль формата                          : High@L4.1
Настройки формата                        : CABAC / 4 Ref Frames
Параметр CABAC формата                   : Да
Параметр RefFrames формата               : 4 кадра
Идентификатор кодека                     : avc1
Идентификатор кодека/Информация          : Advanced Video Coding
Продолжительность                        : 2 ч. 29 м.
Битрейт                                  : 1050 Кбит/сек
Ширина                                   : 1280 пикселей
Высота                                   : 534 пикселя
Соотношение сторон                       : 2,40:1
Соотношение сторон в оригинале           : 2,40:1
Режим частоты кадров                     : Постоянный
Частота кадров                           : 23,976 (24000/1001) кадра/сек
Цветовое пространство                    : YUV
Субдискретизация насыщенности            : 4:2:0
Битовая глубина                          : 8 бит
Тип развёртки                            : Прогрессивная
Бит/(Пиксели*Кадры)                      : 0.064
Размер потока                            : 1,10 Гбайт (89%)
Библиотека кодирования                   : x264 core 155
Настройки программы                      : cabac=1 / ref=4 / deblock=1:-1:-1 / analyse=0x3:0x133 / me=umh / subme=9 / psy=1 / psy_rd=1.00:0.15 / mixed_ref=1 / me_range=24 / chroma_me=1 / trellis=2 / 8x8dct=1 / cqm=0 / deadzone=21,11 / fast_pskip=0 / chroma_qp_offset=-3 / threads=17 / lookahead_threads=1 / sliced_threads=0 / nr=0 / decimate=1 / interlaced=0 / bluray_compat=0 / constrained_intra=0 / bframes=3 / b_pyramid=2 / b_adapt=2 / b_bias=0 / direct=3 / weightb=1 / open_gop=0 / weightp=2 / keyint=250 / keyint_min=23 / scenecut=40 / intra_refresh=0 / rc_lookahead=60 / rc=2pass / mbtree=1 / bitrate=1050 / ratetol=1.0 / qcomp=0.60 / qpmin=0 / qpmax=69 / qpstep=4 / cplxblur=20.0 / qblur=0.5 / vbv_maxrate=31250 / vbv_bufsize=31250 / nal_hrd=none / filler=0 / ip_ratio=1.40 / aq=1:1.00
Аудио
Идентификатор                            : 2
Формат                                   : AAC
Формат/Информация                        : Advanced Audio Codec
Профиль формата                          : HE-AAC / LC
Настройки формата                        : Implicit
Идентификатор кодека                     : mp4a-40-2
Продолжительность                        : 2 ч. 29 м.
Вид битрейта                             : Постоянный
Битрейт                                  : 128 Кбит/сек
Каналы                                   : 2 канала
Расположение каналов                     : Front: L R
Частота                                  : 48,0 КГц / 24,0 КГц
Частота кадров                           : 23,438 кадра/сек (1024 SPF)
Метод сжатия                             : С потерями
Размер потока                            : 137 Мбайт (11%)
Заголовок                                : iTunes / iTunes
Язык                                     : Russian
Default                                  : Да
AlternateGroup/String                    : 1
Текст
Идентификатор                            : 3
Формат                                   : Timed Text
Режим смешивания                         : sbtl
Идентификатор кодека                     : tx3g
Продолжительность                        : 2 ч. 29 м.
Вид битрейта                             : Переменный
Битрейт                                  : 0 бит/сек
Размер потока                            : 429 байт (0%)
Заголовок                                : Forced / Forced
Язык                                     : Russian
Default                                  : Да
Forced                                   : Нет
AlternateGroup/String                    : 3

Трейлер

-     - -

_________________
Вне форума [Профиль] [ЛС]
Показать сообщения:    
Ответить на тему

Текущее время: Сегодня 05:22

Часовой пояс: GMT + 3



Вы не можете начинать темы
Вы не можете отвечать на сообщения
Вы не можете редактировать свои сообщения
Вы не можете удалять свои сообщения
Вы не можете голосовать в опросах
Вы не можете прикреплять файлы к сообщениям
Вы не можете скачивать файлы