Today is a free download without charge Download

Дэдпул 2 / Deadpool 2 (Дэвид Литч) [2018 г., фантастика, боевик, комедия, приключения, TS *PROPER*] DUB

Reply to topic
 
Author
Message

Theseus ®

Gender:

Longevity: 7 years 11 months

Posts: 2019

Торрент-статистика

Post 03-Jun-2018 20:28

[Quote]

Дэдпул 2 / Deadpool 2 -Год выхода: 2018
Страна: США
Жанр: фантастика, боевик, комедия, приключения
Продолжительность: 01:53:23
Перевод: Профессиональный (полное дублирование)
Субтитры: Отсутствуют-Режиссер: Дэвид Литч-В ролях: Джош Бролин, Райан Рейнольдс, Морена Баккарин, Зази Битц, Брианна Хилдебранд, Брэд Питт, Билл Скарсгард, ТиДжей Миллер, Терри Крюс, Роб Делани-О фильме: Единственный и неповторимый болтливый наемник — вернулся! Ещё более масштабный, ещё более разрушительный и даже ещё более голозадый, чем прежде! Когда в его жизнь врывается суперсолдат с убийственной миссией, Дэдпул вынужден задуматься о дружбе, семье и о том, что на самом деле значит быть героем, попутно надирая 50 оттенков задниц. Потому что иногда чтобы делать хорошие вещи, нужно использовать грязные приёмчики..- -Качество: TS *PROPER*
Формат: AVI
Видео кодек: XviD
Аудио кодек: AC3
Видео: MPEG4, XviD, 720x304 (2.35:1), 30.000 fps, 1 531 Kbps (0.233 bit/pixel)
Аудио: AC-3, 48.0 KHz, 2 ch, 192 Kbps, CBR-Сэмпл-Рекламы нет !-

MediaInfo

Общее
Полное имя : Deadpool.2.2018.TS.avi
Формат : AVI
Формат/Информация : Audio Video Interleave
Размер файла : 1,37 Гбайт
Продолжительность : 1 ч. 53 м.
Общий поток : 1735 Кбит/сек
Библиотека кодирования : VirtualDub build 35491/release
Видео
Идентификатор : 0
Формат : MPEG-4 Visual
Профиль формата : Advanced Simple@L4
Настройки формата : BVOP2
Параметр BVOP формата : 2
Параметр QPel формата : Нет
Параметр GMC формата : Без точки перехода
Параметр матрицы формата : Default (H.263)
Режим смешивания : Сжатый битовый поток
Идентификатор кодека : XVID
Идентификатор кодека/Подсказка : XviD
Продолжительность : 1 ч. 53 м.
Битрейт : 1531 Кбит/сек
Ширина : 720 пикселей
Высота : 304 пикселя
Соотношение сторон : 2,35:1
Частота кадров : 30,000 кадров/сек
Цветовое пространство : YUV
Субдискретизация насыщенности : 4:2:0
Битовая глубина : 8 бит
Тип развёртки : Прогрессивная
Метод сжатия : С потерями
Бит/(Пиксели*Кадры) : 0.233
Размер потока : 1,21 Гбайт (88%)
Библиотека кодирования : XviD 67
Аудио
Идентификатор : 1
Формат : AC-3
Формат/Информация : Audio Coding 3
Идентификатор кодека : 2000
Продолжительность : 1 ч. 53 м.
Вид битрейта : Постоянный
Битрейт : 192 Кбит/сек
Каналы : 2 канала
Расположение каналов : Front: L R
Частота : 48,0 КГц
Частота кадров : 31,250 кадров/сек (1536 SPF)
Битовая глубина : 16 бит
Метод сжатия : С потерями
Размер потока : 156 Мбайт (11%)
Выравнивание : Соединение по промежуткам
Продолжительность промежутка : 32 мс. (0,96 видеокадр)
Время предзагрузки промежутка : 512 мс.
ServiceKind/String : Complete Main

Трейлер

-     - -

_________________
Other forum [Profile] [PM]
Display posts from previous:    
Reply to topic

The time now is: Today 02:45

All times are GMT + 3 Hours



You cannot post new topics in this forum
You cannot reply to topics in this forum
You cannot edit your posts in this forum
You cannot delete your posts in this forum
You cannot vote in polls in this forum
You cannot attach files in this forum
You cannot download files in this forum