Today is a free download without charge Download

Величайший шоумен / The Greatest Showman (Майкл Грэйси) [2017, драма, биография, мюзикл, BDRip 720p] DUB | iTunes

Reply to topic
 
Author
Message

Theseus ®

Gender:

Longevity: 7 years 11 months

Posts: 2019

Торрент-статистика

Post 07-Apr-2018 15:30

[Quote]

Величайший шоумен / The Greatest Showman- Год выпуска: 2017
Страна: США
Жанр: драма, биография, мюзикл,
Продолжительность: 01:44:49
Перевод: Профессиональный (полное дублирование) | iTunes
Субтитры: Русские, Украинские, Английские-Режиссер: Майкл Грэйси-В ролях: Хью Джекман, Зак Эфрон, Мишель Уильямс, Ребекка Фергюсон (II), Зендея, Кила Сеттл, Яхья Абдул-Матин II, Остин Джонсон, Эллис Рубин, Скайлар Данн-О фильме: Финеас Тейлор Барнум всегда мечтал войти в историю, но все его занятия не приносили ему удовольствия. И когда, казалось, весь мир обернулся против него, он решает пойти вслед за своей мечтой. Барнум создает завораживающее представление-сенсацию, которое стало рождением мирового шоу-бизнеса.- -Качество: BDRip 720p
Формат: MKV
Видео кодек: x.264
Аудио кодек: AC3, DTS
Видео: MPEG-4 AVC, 1280x534, 4670 Kbit/s, 23.976 fps
Аудио 1: |RUS| AC-3, 48.0 kHz, 6 ch, 384 kb/s, | DUB / iTunes |
Аудио 2: |UKR| AC-3, 48.0 kHz, 2 ch, 224 kb/s | DUB / iTunes |
Аудио 4: |ENG| DTS-ES, 48.0 kHz, 7 ch,1 509 kb/s | Original |-

MediaInfo

General
Unique ID : 246773132259977357720239808635442737948 (0xB9A6C6C7FB3562AADC9066C25902B31C)
Complete name : The.Greatest.Showman.2017.DDD.BDRip.720p.ExKinoRay (1).mkv
Format : Matroska
Format version : Version 4 / Version 2
File size : 4.97 GiB
Duration : 1 h 44 min
Overall bit rate : 6 792 kb/s
Movie name : The Greatest Showman 2017 from ExKinoRay
Encoded date : UTC 2018-04-05 19:20:11
Writing application : mkvmerge v22.0.0 ('At The End Of The World') 64-bit
Writing library : libebml v1.3.5 + libmatroska v1.4.8
Video
ID : 1
Format : AVC
Format/Info : Advanced Video Codec
Format profile : High@L4.1
Format settings : CABAC / 12 Ref Frames
Format settings, CABAC : Yes
Format settings, ReFrames : 12 frames
Codec ID : V_MPEG4/ISO/AVC
Duration : 1 h 44 min
Bit rate : 4 670 kb/s
Width : 1 280 pixels
Height : 534 pixels
Display aspect ratio : 2.40:1
Frame rate mode : Constant
Frame rate : 23.976 (24000/1001) FPS
Color space : YUV
Chroma subsampling : 4:2:0
Bit depth : 8 bits
Scan type : Progressive
Bits/(Pixel*Frame) : 0.285
Stream size : 3.42 GiB (69%)
Writing library : x264 core 148 r2705 3f5ed56
Encoding settings : cabac=1 / ref=12 / deblock=1:-2:-2 / analyse=0x3:0x133 / me=umh / subme=11 / psy=1 / psy_rd=1.05:0.05 / mixed_ref=1 / me_range=48 / chroma_me=1 / trellis=2 / 8x8dct=1 / cqm=0 / deadzone=21,11 / fast_pskip=0 / chroma_qp_offset=-3 / threads=24 / lookahead_threads=4 / sliced_threads=0 / nr=0 / decimate=0 / interlaced=0 / bluray_compat=0 / constrained_intra=0 / bframes=10 / b_pyramid=2 / b_adapt=2 / b_bias=0 / direct=3 / weightb=1 / open_gop=0 / weightp=2 / keyint=240 / keyint_min=23 / scenecut=40 / intra_refresh=0 / rc_lookahead=50 / rc=2pass / mbtree=0 / bitrate=4670 / ratetol=1.0 / qcomp=0.60 / qpmin=0 / qpmax=51 / qpstep=4 / cplxblur=20.0 / qblur=0.5 / vbv_maxrate=50000 / vbv_bufsize=62500 / nal_hrd=none / filler=0 / ip_ratio=1.40 / pb_ratio=1.30 / aq=3:0.80
Language : English
Default : Yes
Forced : No
Audio #1
ID : 2
Format : AC-3
Format/Info : Audio Coding 3
Codec ID : A_AC3
Duration : 1 h 44 min
Bit rate mode : Constant
Bit rate : 384 kb/s
Channel(s) : 6 channels
Channel positions : Front: L C R, Side: L R, LFE
Sampling rate : 48.0 kHz
Frame rate : 31.250 FPS (1536 SPF)
Bit depth : 16 bits
Compression mode : Lossy
Stream size : 288 MiB (6%)
Title : iTunes
Language : Russian
Service kind : Complete Main
Default : Yes
Forced : Yes
Audio #2
ID : 3
Format : AC-3
Format/Info : Audio Coding 3
Codec ID : A_AC3
Duration : 1 h 44 min
Bit rate mode : Constant
Bit rate : 224 kb/s
Channel(s) : 2 channels
Channel positions : Front: L R
Sampling rate : 48.0 kHz
Frame rate : 31.250 FPS (1536 SPF)
Bit depth : 16 bits
Compression mode : Lossy
Stream size : 168 MiB (3%)
Title : iTunes
Language : Ukrainian
Service kind : Complete Main
Default : No
Forced : No
Audio #3
ID : 4
Format : DTS
Format/Info : Digital Theater Systems
Format profile : ES Matrix / Core
Codec ID : A_DTS
Duration : 1 h 44 min
Bit rate mode : Constant
Bit rate : 1 509 kb/s
Channel(s) : 7 channels / 6 channels
Channel positions : Front: L C R, Side: L R, Back: C, LFE / Front: L C R, Side: L R, LFE
Sampling rate : 48.0 kHz
Frame rate : 93.750 FPS (512 SPF)
Bit depth : 24 bits
Compression mode : Lossy
Stream size : 1.10 GiB (22%)
Title : Original
Language : English
Default : No
Forced : No
Text #1
ID : 5
Format : UTF-8
Codec ID : S_TEXT/UTF8
Codec ID/Info : UTF-8 Plain Text
Duration : 1 h 36 min
Bit rate : 39 b/s
Count of elements : 474
Stream size : 27.6 KiB (0%)
Title : Forced
Language : Russian
Default : Yes
Forced : Yes
Text #2
ID : 6
Format : UTF-8
Codec ID : S_TEXT/UTF8
Codec ID/Info : UTF-8 Plain Text
Duration : 1 h 43 min
Bit rate : 92 b/s
Count of elements : 1388
Stream size : 70.4 KiB (0%)
Title : Full
Language : Russian
Default : No
Forced : No
Text #3
ID : 7
Format : UTF-8
Codec ID : S_TEXT/UTF8
Codec ID/Info : UTF-8 Plain Text
Duration : 1 h 36 min
Bit rate : 44 b/s
Count of elements : 559
Stream size : 31.6 KiB (0%)
Title : Forced
Language : Ukrainian
Default : No
Forced : No
Text #4
ID : 8
Format : UTF-8
Codec ID : S_TEXT/UTF8
Codec ID/Info : UTF-8 Plain Text
Duration : 1 h 43 min
Bit rate : 98 b/s
Count of elements : 1488
Stream size : 75.2 KiB (0%)
Title : Full
Language : Ukrainian
Default : No
Forced : No
Text #5
ID : 9
Format : UTF-8
Codec ID : S_TEXT/UTF8
Codec ID/Info : UTF-8 Plain Text
Duration : 1 h 36 min
Bit rate : 77 b/s
Count of elements : 1335
Stream size : 54.5 KiB (0%)
Title : Full
Language : English
Default : No
Forced : No
Text #6
ID : 10
Format : UTF-8
Codec ID : S_TEXT/UTF8
Codec ID/Info : UTF-8 Plain Text
Duration : 1 h 43 min
Bit rate : 77 b/s
Count of elements : 1864
Stream size : 58.7 KiB (0%)
Title : SDH
Language : English
Default : No
Forced : No
Menu
00:00:00.000 : en:Chapter 1
00:11:42.327 : en:Chapter 2
00:24:00.397 : en:Chapter 3
00:29:22.719 : en:Chapter 4
00:43:31.359 : en:Chapter 5
00:50:22.561 : en:Chapter 6
00:54:07.286 : en:Chapter 7
01:02:18.902 : en:Chapter 8
01:07:25.124 : en:Chapter 9
01:11:39.629 : en:Chapter 10
01:15:10.381 : en:Chapter 11
01:20:32.411 : en:Chapter 12
01:25:34.963 : en:Chapter 13
01:31:17.639 : en:Chapter 14
01:40:01.746 : en:Chapter 15
01:51:26.221 : en:Chapter 16

Трейлер

-     - -

_________________
Other forum [Profile] [PM]
Display posts from previous:    
Reply to topic

The time now is: Today 02:46

All times are GMT + 3 Hours



You cannot post new topics in this forum
You cannot reply to topics in this forum
You cannot edit your posts in this forum
You cannot delete your posts in this forum
You cannot vote in polls in this forum
You cannot attach files in this forum
You cannot download files in this forum