Сегодня идет свободное скачивание без начисления Download

Приходи на меня посмотреть (2000) DVDRip [H.264]

Ответить на тему
 
Автор
Сообщение

}{@R0N ®

Стаж: 2 года 10 месяцев

Сообщений: 6597

Торрент-статистика

Пост 02-Мар-2018 22:43

[Цитировать]

Приходи на меня посмотреть - Производство: Россия. НТВ-Профит Киностудия имени М. Горького
Жанр: Комедия
Режиссер: Михаил Агранович, Олег Янковский
Актеры: Олег Янковский, Екатерина Васильева, Ирина Купченко, Наталья Щукина, Иван Янковский
Описание:
Татьяна, женщина среднего возраста, живёт со своей больной матерью Софьей Ивановной, которая последние десять лет не может ходить и очень переживает, что дочь осталась старой девой. Матери представляется, что в этом только её вина — в желании удержать Татьяну около себя.
За неделю до Нового года Софья Ивановна заявляет, что скоро умрёт и ей бы хотелось уйти, зная, что дочь счастлива. В квартире гаснет свет, раздаётся стук в дверь. На пороге стоит незнакомый мужчина с букетом роз и шампанским...

Возраст: 0+ (для любой зрительской аудитории)
Продолжительность: 01:41:56
Качество видео: DVDRip
Видео: AVC/H.264, 720x536, ~1585 kbps
Аудио: AC3, 6 ch, 448 kbps

Mediainfo:

Общее
Уникальный идентификатор : 172086149507555085431141934478851230601 (0x8176963AD30F513C9058B91090CACB89)
Полное имя : G:\Приходи на меня посмотреть\Приходи на меня посмотреть. 2000.mkv
Формат : Matroska
Версия формата : Version 4 / Version 2
Размер файла : 1,45 Гбайт
Продолжительность : 1 ч. 41 м.
Общий поток : 2035 Кбит/сек
Название фильма : Release for Topmost
Дата кодирования : UTC 2018-03-01 19:53:22
Программа кодирования : mkvmerge v6.2.0 ('Promised Land') built on Apr 28 2013 12:22:01
Библиотека кодирования : libebml v1.3.0 + libmatroska v1.4.0
Attachment : Yes
Видео
Идентификатор : 1
Формат : AVC
Формат/Информация : Advanced Video Codec
Профиль формата : [url=mailto:High@L4.1]High@L4.1[/url]
Параметр CABAC формата : Да
Параметр ReFrames формата : 12 кадров
Идентификатор кодека : V_MPEG4/ISO/AVC
Продолжительность : 1 ч. 41 м.
Битрейт : 1585 Кбит/сек
Ширина : 720 пикселей
Высота : 536 пикселей
Соотношение сторон : 4:3
Режим частоты кадров : Постоянный
Частота кадров : 25,000 кадров/сек
Цветовое пространство : YUV
Субдискретизация насыщенности : 4:2:0
Битовая глубина : 8 бит
Тип развёртки : Прогрессивная
Бит/(Пиксели*Кадры) : 0.164
Размер потока : 1,10 Гбайт (76%)
Заголовок : Приходи на меня посмотреть. 2000 (Release for Topmost)
Библиотека кодирования : x264 core 146 r2538 121396c
Настройки программы : cabac=1 / ref=12 / deblock=1:-3:-3 / analyse=0x3:0x113 / me=umh / subme=11 / psy=1 / psy_rd=1.00:0.15 / mixed_ref=1 / me_range=32 / chroma_me=1 / trellis=2 / 8x8dct=1 / cqm=0 / deadzone=21,11 / fast_pskip=0 / chroma_qp_offset=-3 / threads=12 / lookahead_threads=2 / sliced_threads=0 / nr=0 / decimate=0 / interlaced=0 / bluray_compat=0 / constrained_intra=0 / bframes=8 / b_pyramid=2 / b_adapt=2 / b_bias=0 / direct=3 / weightb=1 / open_gop=0 / weightp=2 / keyint=240 / keyint_min=23 / scenecut=40 / intra_refresh=0 / rc_lookahead=40 / rc=2pass / mbtree=1 / bitrate=1585 / ratetol=1.0 / qcomp=0.60 / qpmin=0 / qpmax=69 / qpstep=4 / cplxblur=20.0 / qblur=0.5 / ip_ratio=1.40 / aq=1:0.90
Язык : Russian
Default : Да
Forced : Нет
Аудио
Идентификатор : 2
Формат : AC-3
Формат/Информация : Audio Coding 3
Расширение режима : CM (complete main)
Параметр Endianness формата : Big
Идентификатор кодека : A_AC3
Продолжительность : 1 ч. 41 м.
Вид битрейта : Постоянный
Битрейт : 448 Кбит/сек
Каналы : 6 каналов
Расположение каналов : Front: L C R, Side: L R, LFE
Частота : 48,0 КГц
Битовая глубина : 16 бит
Метод сжатия : С потерями
Размер потока : 327 Мбайт (22%)
Заголовок : AC3, 6 ch, 448 kbps
Язык : Russian
Default : Да
Forced : Нет
Скриншоты:
       
Вне форума [Профиль] [ЛС]
Показать сообщения:    
Ответить на тему

Текущее время: Сегодня 21:03

Часовой пояс: GMT + 3



Вы не можете начинать темы
Вы не можете отвечать на сообщения
Вы не можете редактировать свои сообщения
Вы не можете удалять свои сообщения
Вы не можете голосовать в опросах
Вы не можете прикреплять файлы к сообщениям
Вы не можете скачивать файлы