Today is a free download without charge Download

Детство Шелдона (Молодой Шелдон) / Young Sheldon (1 Сезон / 1 - 19 Серия из 24) (Майкл Цинберг, Марк Сендроуски, Ховард Дойч,) [2017/18, Комедия, WEB-DL 1080p] [Кураж-Бамбей]

Reply to topic
 
Author
Message

Theseus ®

Gender:

Longevity: 8 years 2 months

Posts: 2053

Торрент-статистика

Post 08-Feb-2018 20:32

[Quote]

Детство Шелдона (Молодой Шелдон) / Young Sheldon Год выхода: 2017/18
Страна: США
Жанр: комедия
Продолжительность серии: ~00:20:00
Перевод: Профессиональный (одноголосый) |Кураж-Бамбей|
Субтитры: English-Режиссер: Майкл Цинберг, Марк Сендроуски, Ховард Дойч-В ролях: Марсия Энн Бёррс, Док Фэрроу, Рекс Линн, Уайатт МакКлюр, Брайан Степанек, Мелисса Тэнг, Иэн Армитедж, Лэнс Барбер, Монтана Джордан, Джим Парсонс-О фильме: Сериал является приквелом к «Теории большого взрыва» и в нем рассказывается о Шелдоне Купере, когда ему было 9 лет и он ходил в школу в Восточном Техасе. Джим Парсонс, игравший Шелдона в «Теории большого взрыва», выступит в роли рассказчика, а также он один из исполнительных продюсеров.- -Качество: WEB-DL 1080p
Формат: MKV
Видео кодек: x.264
Аудио кодек: AC3
Видео: AVC, 1920x1080 (16:9), 23.976 fps, 10,4 Mbps (0.209 bit/pixel)
Аудио #1: AC-3, 48.0 KHz, 2 ch, 192 Kbps, CBR | RUS
Аудио #2: AC-3, 48.0 KHz, 6 ch, 640 Kbps, CBR | ENG-Без рекламы !-

MediaInfo

General
Unique ID : 202960134926308810550226732572335942443 (0x98B0B33C301D44B0BD01B9112C302B2B)
Complete name : Young.Sheldon.S01E02.Rockets.Communists.and.the.Dewey.Decimal.System.1080p.AMZN.WEB-DL.H.264-Kuraj-Bambey.mkv
Format : Matroska
Format version : Version 4 / Version 2
File size : 1.43 GiB
Duration : 18 min 13 s
Overall bit rate mode : Variable
Overall bit rate : 11.2 Mb/s
Encoded date : UTC 2017-11-14 10:28:18
Writing application : mkvmerge v17.0.0 ('Be Ur Friend') 64-bit
Writing library : libebml v1.3.5 + libmatroska v1.4.8
Cover : Yes
Attachments : cover.sheldon.jpg
Video
ID : 1
Format : AVC
Format/Info : Advanced Video Codec
Format profile : High@L4
Format settings : CABAC / 4 Ref Frames
Format settings, CABAC : Yes
Format settings, RefFrames : 4 frames
Codec ID : V_MPEG4/ISO/AVC
Duration : 18 min 13 s
Bit rate mode : Variable
Bit rate : 10.4 Mb/s
Maximum bit rate : 15.0 Mb/s
Width : 1 920 pixels
Height : 1 080 pixels
Display aspect ratio : 16:9
Frame rate mode : Constant
Frame rate : 23.976 (24000/1001) FPS
Color space : YUV
Chroma subsampling : 4:2:0
Bit depth : 8 bits
Scan type : Progressive
Bits/(Pixel*Frame) : 0.209
Stream size : 1.32 GiB (93%)
Language : English
Default : Yes
Forced : No
Color range : Limited
Color primaries : BT.709
Transfer characteristics : BT.709
Matrix coefficients : BT.709
Audio #1
ID : 2
Format : AC-3
Format/Info : Audio Coding 3
Codec ID : A_AC3
Duration : 18 min 13 s
Bit rate mode : Constant
Bit rate : 192 kb/s
Channel(s) : 2 channels
Channel positions : Front: L R
Sampling rate : 48.0 kHz
Frame rate : 31.250 FPS (1536 SPF)
Bit depth : 16 bits
Compression mode : Lossy
Stream size : 25.0 MiB (2%)
Language : Russian
Service kind : Complete Main
Default : Yes
Forced : No
Audio #2
ID : 3
Format : E-AC-3
Format/Info : Enhanced Audio Coding 3
Codec ID : A_EAC3
Duration : 18 min 13 s
Bit rate mode : Constant
Bit rate : 640 kb/s
Channel(s) : 6 channels
Channel positions : Front: L C R, Side: L R, LFE
Sampling rate : 48.0 kHz
Frame rate : 187.500 FPS (256 SPF)
Compression mode : Lossy
Stream size : 83.4 MiB (6%)
Language : English
Service kind : Complete Main
Default : No
Forced : No
Text
ID : 4
Format : UTF-8
Codec ID : S_TEXT/UTF8
Codec ID/Info : UTF-8 Plain Text
Duration : 17 min 40 s
Bit rate : 101 b/s
Count of elements : 453
Stream size : 13.2 KiB (0%)
Language : English
Default : No
Forced : No
-    - -

_________________
Other forum [Profile] [PM]
Display posts from previous:    
Reply to topic

The time now is: Today 10:47

All times are GMT + 3 Hours



You cannot post new topics in this forum
You cannot reply to topics in this forum
You cannot edit your posts in this forum
You cannot delete your posts in this forum
You cannot vote in polls in this forum
You cannot attach files in this forum
You cannot download files in this forum