Today is a free download without charge Download

Во все дырки [2017 г., Anal Sex, Dogging, Teens, Creampie, CamRip] (Neizvestnyy lyubovniki)

Reply to topic
 
Author
Message

XP1971 ®

Торрент-статистика

Post 04-Jan-2018 01:06

[Quote]

-Во все дырки
-- Студия: N/A
Режиссёр: N/A
Страна: Россия
Год выпуска: 2017 г.
Продолжительность: 01:00:22
Оригинальный аудиопоток: русский
Жанр: Anal Sex, Dogging, Teens, Creampie-В ролях: Neizvestnyye lyubovniki-Описание:
Всё неспешно и по плану, равномерно и ласково, никуда не торопясь - опробованы разнообразные позы и отверстия. Присутствует анальная кончита, приятная музычка за кадром и крупный план происходящего. Приятнага просмотра. Энджой, граждане.-
Контейнер: MP4
Видео кодек: AVC
Cубтитры: отсутствуют
Качество видео: CamRip
Аудио кодек: MPEG Audio
Аудио: MPEG Audio | 16.0 KHz | 2 ch | 24.0 Kbps
Видео: Adv. Video | 800х600 | 2083 Кbps | 30.0 fps | 0.223 bit/pixel

Media Info

Код:
Общее
Полное имя : Vo_vse_dyrki_[].mp4
Формат : MPEG-4
Профиль формата : Base Media
Идентификатор кодека : isom (isom/iso2/avc1/mp41)
Размер файла : 912 Мбайт
Продолжительность : 1 ч. 0 м.
Общий поток : 2111 Кбит/сек
Программа кодирования : Lavf56.40.101
Видео
Идентификатор : 1
Формат : AVC
Формат/Информация : Advanced Video Codec
Профиль формата : [email protected]
Параметр CABAC формата : Нет
Параметр ReFrames формата : 1 кадр
Параметр GOP формата : M=1, N=3
Идентификатор кодека : avc1
Идентификатор кодека/Информация : Advanced Video Coding
Продолжительность : 1 ч. 0 м.
Битрейт : 2083 Кбит/сек
Ширина : 800 пикселей
Высота : 600 пикселей
Соотношение сторон : 4:3
Режим частоты кадров : Переменный
Частота кадров : 19,472 кадров/сек
Минимальная частота кадров : 0,078 кадр/сек
Максимальная частота кадров : 16000,000 кадров/сек
Частота кадров в оригинале : 30,000 кадров/сек
Стандарт вещания : NTSC
Цветовое пространство : YUV
Субдискретизация насыщенности : 4:2:0
Битовая глубина : 8 бит
Тип развёртки : Прогрессивная
Бит/(Пиксели*Кадры) : 0.223
Размер потока : 899 Мбайт (99%)
Цветовой диапазон : Limited
Аудио
Идентификатор : 2
Формат : MPEG Audio
Версия формата : Version 2
Профиль формата : Layer 3
Идентификатор кодека : 69
Продолжительность : 1 ч. 0 м.
Вид битрейта : Постоянный
Битрейт : 24,0 Кбит/сек
Каналы : 2 канала
Channel(s)_Original : 1 канал
Частота : 16,0 КГц
Метод сжатия : С потерями
Размер потока : 10,3 Мбайт (1%)
Библиотека кодирования : LAMEUUU
Default : Да
AlternateGroup/String : 1

Скринлист

Скриншоты

                                                 
 
Display posts from previous:    
Reply to topic

The time now is: Today 16:57

All times are GMT + 3 Hours



You cannot post new topics in this forum
You cannot reply to topics in this forum
You cannot edit your posts in this forum
You cannot delete your posts in this forum
You cannot vote in polls in this forum
You cannot attach files in this forum
You cannot download files in this forum