Сегодня идет свободное скачивание без начисления Download

Сверхлюди / Inhumans (1 Сезон / 1 - 8 Серия из 8) (Роэль Рейн, Крис Фишер, Билл Джирхарт ) [2017, Фантастика, боевик, приключения, WEB-DLRip-AVC] DUB [Невафильм] + MVO [LostFilm]

Ответить на тему
 
Автор
Сообщение

Theseus ®

Пол:

Стаж: 6 лет 5 месяцев

Сообщений: 1348

Торрент-статистика

Пост 11-Ноя-2017 23:35

[Цитировать]

Сверхлюди / Inhumans-Год выхода: 2017
Страна: США
Жанр: Фантастика, боевик, приключения
Продолжительность серии: ~ 00:45:00
Перевод: Профессиональный (полное дублирование) | Невафильм / Профессиональный (многоголосый закадровый) | LostFilm
Субтитры: English-Режиссер: Роэль Рейн, Крис Фишер, Билл Джирхар-В ролях: Соня Балморес, Изабель Корниш, Эме Иквуакор, Кен Люн, Майк Мо, Энсон Маунт, Иван Реон, Серинда Свон, Эллен Воглом, Генри Иэн Кьюсик-О фильме:
История Королевской семьи, принадлежащей к расе Сверхлюдей. Вследствие военного переворота члены королевской фамилии под предводительством Чёрного Грома вынуждены покинуть свой дом в лунном городе Аттилан и бежать на острова, как в дальнейшем оказывается — Гавайи, где им предстоит спасать не только себя, но и весь мир от гибели.- -Качество: WEB-DLRip-AVC
Формат: MKV
Видео кодек: x.264
Аудио кодек: AC3
Видео: AVC, 1024x576 (16:9), 23.976 fps, 2 429 Kbps
Аудио #1: AC-3, 48.0 KHz, 6 ch, 384 Kbps, CBR (Russian/Невафильм)
Аудио #2: AC-3, 48.0 KHz, 6 ch, 384 Kbps, CBR (Russian/LostFilm)
Аудио #3: AC-3, 48.0 KHz, 6 ch, 384 Kbps, CBR (English)-Рекламы нет !-

MediaInfo

Общее
Уникальный идентификатор : 203805602581882883799317869216977736409 (0x99538802450CCD6DB208DE806FF952D9)
Полное имя : Inhumans.S01E01.WEB-DLRip-AVC.mkv
Формат : Matroska
Версия формата : Version 4 / Version 2
Размер файла : 1,06 Гбайт
Продолжительность : 42 м. 29 с.
Общий поток : 3584 Кбит/сек
Дата кодирования : UTC 2017-11-11 10:14:17
Программа кодирования : mkvmerge v8.3.0 ('Over the Horizon') 64bit
Библиотека кодирования : libebml v1.3.1 + libmatroska v1.4.2
Видео
Идентификатор : 1
Формат : AVC
Формат/Информация : Advanced Video Codec
Профиль формата : Main@L3.1
Параметр CABAC формата : Да
Параметр ReFrames формата : 1 кадр
Идентификатор кодека : V_MPEG4/ISO/AVC
Продолжительность : 42 м. 29 с.
Битрейт : 2429 Кбит/сек
Ширина : 1024 пикселя
Высота : 576 пикселей
Соотношение сторон : 16:9
Режим частоты кадров : Постоянный
Частота кадров : 23,976 (24000/1001) кадра/сек
Цветовое пространство : YUV
Субдискретизация насыщенности : 4:2:0
Битовая глубина : 8 бит
Тип развёртки : Прогрессивная
Бит/(Пиксели*Кадры) : 0.172
Размер потока : 738 Мбайт (68%)
Язык : English
Default : Да
Forced : Нет
Аудио #1
Идентификатор : 2
Формат : AC-3
Формат/Информация : Audio Coding 3
Параметр Endianness формата : Big
Идентификатор кодека : A_AC3
Продолжительность : 42 м. 29 с.
Вид битрейта : Постоянный
Битрейт : 384 Кбит/сек
Каналы : 6 каналов
Расположение каналов : Front: L C R, Side: L R, LFE
Частота : 48,0 КГц
Частота кадров : 31,250 кадров/сек (1536 spf)
Битовая глубина : 16 бит
Метод сжатия : С потерями
Размер потока : 117 Мбайт (11%)
Заголовок : Nevafilm
Язык : Russian
ServiceKind/String : Complete Main
Default : Да
Forced : Нет
Аудио #2
Идентификатор : 3
Формат : AC-3
Формат/Информация : Audio Coding 3
Параметр Endianness формата : Big
Идентификатор кодека : A_AC3
Продолжительность : 42 м. 29 с.
Вид битрейта : Постоянный
Битрейт : 384 Кбит/сек
Каналы : 6 каналов
Расположение каналов : Front: L C R, Side: L R, LFE
Частота : 48,0 КГц
Частота кадров : 31,250 кадров/сек (1536 spf)
Битовая глубина : 16 бит
Метод сжатия : С потерями
Размер потока : 117 Мбайт (11%)
Заголовок : LostFilm
Язык : Russian
ServiceKind/String : Complete Main
Default : Нет
Forced : Нет
Аудио #3
Идентификатор : 4
Формат : AC-3
Формат/Информация : Audio Coding 3
Параметр Endianness формата : Big
Идентификатор кодека : A_AC3
Продолжительность : 42 м. 29 с.
Вид битрейта : Постоянный
Битрейт : 384 Кбит/сек
Каналы : 6 каналов
Расположение каналов : Front: L C R, Side: L R, LFE
Частота : 48,0 КГц
Частота кадров : 31,250 кадров/сек (1536 spf)
Битовая глубина : 16 бит
Метод сжатия : С потерями
Размер потока : 117 Мбайт (11%)
Язык : English
ServiceKind/String : Complete Main
Default : Нет
Forced : Нет
Текст
Идентификатор : 5
Формат : UTF-8
Идентификатор кодека : S_TEXT/UTF8
Идентификатор кодека/Информация : UTF-8 Plain Text
Продолжительность : 42 м. 26 с.
Битрейт : 49 бит/сек
ElementCount : 696
Размер потока : 15,5 Кбайт (0%)
Язык : English
Default : Да
Forced : Нет

Трейлер

-     - -

_________________
Вне форума [Профиль] [ЛС]

Theseus ®

Пол:

Стаж: 6 лет 5 месяцев

Сообщений: 1348

Торрент-статистика

Пост 14-Ноя-2017 23:20 (спустя 2 дня 23 часа)

[Цитировать]

14.11.17 Добавлена 8я серия, сезон закрыт

_________________
Вне форума [Профиль] [ЛС]
Показать сообщения:    
Ответить на тему

Текущее время: Сегодня 12:33

Часовой пояс: GMT + 3



Вы не можете начинать темы
Вы не можете отвечать на сообщения
Вы не можете редактировать свои сообщения
Вы не можете удалять свои сообщения
Вы не можете голосовать в опросах
Вы не можете прикреплять файлы к сообщениям
Вы не можете скачивать файлы