Сегодня идет свободное скачивание без начисления Download

Утиные истории / DuckTales (2017) WEB-DLRip (сезон 1, серии 1-5 из ??) [MVO] (обновляемая)

Ответить на тему
 
Автор
Сообщение

}{@R0N ®

Стаж: 2 года

Сообщений: 5046

Торрент-статистика

Пост 26-Окт-2017 15:21

[Цитировать]

Утиные истории / DuckTales - Производство: США / Walt Disney Television Animation
Жанр: Мультфильм, комедия, приключения, семейный
Режиссер: Дана Террас
Персонажи: Тони Ансельмо, Эрик Бауза, Бек Беннетт, Джош Бренер, Кори Бёртон, Кит Фергюсон, Кимико Гленн, Эллисон Джэнни, Марго Мартиндейл, Кейт Микуччи
Описание:
«Утиные истории» перезапуск известного одноимённого мультсериала 1987 года.

Дата мировой премьеры: 12 августа 2017
Продолжительность: ~00:22:00 серия
Качество видео: WEB-DLRip Сэмпл
Перевод: Многоголосый закадровый, профессиональный - IdeaFilm
Субтитры: Отсутствуют
Видео: Xvid, 720x400 (16:9), ~1500 Kbps
Аудио: AC3, 2 ch, 192 Kbps

Mediainfo:

Общее
Полное имя : D:\Утиные истории (2017)\Серия 01-02.avi
Формат : AVI
Формат/Информация : Audio Video Interleave
Размер файла : 576 Мбайт
Продолжительность : 44 м. 43 с.
Общий поток : 1800 Кбит/сек
Программа кодирования : Lavf54.63.104
Видео
Идентификатор : 0
Формат : xvid
Идентификатор кодека : xvid
Продолжительность : 44 м. 43 с.
Битрейт : 1597 Кбит/сек
Ширина : 720 пикселей
Высота : 400 пикселей
Соотношение сторон : 16:9
Частота кадров : 23,976 (24000/1001) кадра/сек
Тип развёртки : Прогрессивная
Бит/(Пиксели*Кадры) : 0.231
Размер потока : 511 Мбайт (89%)
Аудио
Идентификатор : 1
Формат : AC-3
Формат/Информация : Audio Coding 3
Параметр Endianness формата : Big
Идентификатор кодека : 2000
Продолжительность : 44 м. 43 с.
Вид битрейта : Постоянный
Битрейт : 192 Кбит/сек
Каналы : 2 канала
Расположение каналов : Front: L R
Частота : 48,0 КГц
Частота кадров : 31,250 кадров/сек (1536 SPF)
Битовая глубина : 16 бит
Метод сжатия : С потерями
Размер потока : 61,4 Мбайт (11%)
Выравнивание : Соединение по промежуткам
Продолжительность промежутка : 32 мс. (0,77 видеокадр)
ServiceKind/String : Complete Main

Внимание! Раздача ведётся путём добавления новых серий

Внимание! Раздача ведётся путём добавления новых серий; при каждом добавлении создаётся новый торрент.
Чтобы начать докачку новой серии, пользователям необходимо сделать следующее:
1. Остановить скачивание;
2. Удалить старый торрент у себя из клиента (старые серии удалять не надо);
3. Скачать новый торрент и запустить его у себя в клиенте вместо старого, при этом указать клиенту путь в старую папку куда и должно происходить скачивание новых серий. Ваш клиент при этом должен произвести хеширование (проверку) старой папки и будет докачивать только те серии, которых у вас ещё нет. Старые серии при этом не удаляются, а продолжают раздаваться! Eсли вы уже удалили старые серии, то предотвратить повторную закачку старых серий можно, отжав галочку в соответствующих местах при запуске нового торрента.
Скриншоты:
       
Вне форума [Профиль] [ЛС]
Показать сообщения:    
Ответить на тему

Текущее время: Сегодня 12:34

Часовой пояс: GMT + 3



Вы не можете начинать темы
Вы не можете отвечать на сообщения
Вы не можете редактировать свои сообщения
Вы не можете удалять свои сообщения
Вы не можете голосовать в опросах
Вы не можете прикреплять файлы к сообщениям
Вы не можете скачивать файлы