Сегодня идет свободное скачивание без начисления Download

Хокинг / Hawking (Филип Мартин / Philip Martin) [2004, драма, биография, HDRip-AVC] [VO] (И.Степанов) + [Sub] (Rus) + [Orig] (Eng)

Ответить на тему
 
Автор
Сообщение

maxkiller ®

Пол:

Стаж: 4 года 8 месяцев

Сообщений: 282

Торрент-статистика

Пост 31-Июл-2017 21:46

[Цитировать]

Хокинг / Hawking
Год выхода : 2004
Жанр : драма, биография,
Страна : Великобритания
Продолжительность : 01:28:40
Перевод : Любительский (одноголосый, закадровый) Игорь Степанов
Субтитры: Русские (daetoon1)
Режиссер : Филип Мартин / Philip Martin
В главных ролях : Бенедикт Камбербэтч, Майкл Брэндон, Том Ходжкинс, Лиза Диллон, Фиби Николлс, Адам Годли, Питер Фёрт, Том Уорд, Джон Сессионс, Роэн Сива
Описание : Биографический фильм об университетских годах выдающегося британского ученого астрофизика Стивена Хокинга.
Удивительная судьба удивительного человека. Фильм практически доподлинно рассказывает о самых значимых моментах начала карьеры Хокинга.
Замечательный фильм от ВВС снятый режиссером Филипом Мартином, не уступающий по своим меркам голливудским аналогам. И операторская работа и музыка и сюжет, который в прочем, не особо отличается от реальных событий, и даже интригующая концовка этого биографического фильма — заставляют смотреть его на одном дыхании.

Качество : HDRip-AVC
Формат видео : MKV
Видео : V_MPEG4/ISO/AVC, 720x404, ~2016 kbps avg, 25.000 fps
Aудио #1 : 48 kHz, AC3, 2ch, ~192.00 kbps avg [VO]
Aудио #2 : 48 kHz, AC3, 2ch, ~192.00 kbps avg [ENG]

MI

General
Unique ID : 190886131984201230732893321699560157122 (0x8F9B54EDF069A97FBA14F2DCDB1E6FC2)
Complete name : E:\INTERNET\Hawking.2004.HDRip-AVC.[VO]+Eng+Sub(Rus).mkv
Format : Matroska
Format version : Version 4 / Version 2
File size : 1.49 GiB
Duration : 1h 28mn
Overall bit rate : 2 401 Kbps
Movie name : Hawking (2004)
Encoded date : UTC 2017-07-30 19:21:41
Writing application : mkvmerge v6.1.0 ('Old Devil') built on Mar 2 2013 14:32:37
Writing library : libebml v1.3.0 + libmatroska v1.4.0
Video
ID : 1
Format : AVC
Format/Info : Advanced Video Codec
Format profile : High@L3
Format settings, CABAC : Yes
Format settings, ReFrames : 4 frames
Codec ID : V_MPEG4/ISO/AVC
Duration : 1h 28mn
Bit rate : 2 016 Kbps
Width : 720 pixels
Height : 404 pixels
Display aspect ratio : 16:9
Frame rate mode : Constant
Frame rate : 25.000 fps
Color space : YUV
Chroma subsampling : 4:2:0
Bit depth : 8 bits
Scan type : Progressive
Bits/(Pixel*Frame) : 0.277
Stream size : 1.22 GiB (82%)
Title : Hawking.2004.HDRip-AVC.[VO]+Eng
Writing library : x264 core 123 r2189 35cf912
Encoding settings : cabac=1 / ref=3 / deblock=1:0:0 / analyse=0x3:0x133 / me=hex / subme=7 / psy=1 / psy_rd=1.00:0.00 / mixed_ref=1 / me_range=16 / chroma_me=1 / trellis=1 / 8x8dct=1 / cqm=0 / deadzone=21,11 / fast_pskip=1 / chroma_qp_offset=-2 / threads=6 / sliced_threads=0 / nr=0 / decimate=1 / interlaced=0 / bluray_compat=0 / constrained_intra=0 / bframes=3 / b_pyramid=2 / b_adapt=1 / b_bias=0 / direct=1 / weightb=1 / open_gop=0 / weightp=2 / keyint=250 / keyint_min=25 / scenecut=40 / intra_refresh=0 / rc_lookahead=40 / rc=2pass / mbtree=1 / bitrate=2016 / ratetol=1.0 / qcomp=0.60 / qpmin=10 / qpmax=51 / qpstep=4 / cplxblur=20.0 / qblur=0.5 / ip_ratio=1.40 / aq=1:1.00
Language : English
Default : Yes
Forced : No
DURATION : 01:28:39.680000000
NUMBER_OF_FRAMES : 132992
NUMBER_OF_BYTES : 1340036031
_STATISTICS_WRITING_APP : mkvmerge v7.2.0 ('On Every Street') 32bit built on Sep 13 2014 15:42:11
_STATISTICS_WRITING_DATE_UTC : 2015-01-17 08:27:45
_STATISTICS_TAGS : BPS DURATION NUMBER_OF_FRAMES NUMBER_OF_BYTES
Audio #1
ID : 2
Format : AC-3
Format/Info : Audio Coding 3
Mode extension : CM (complete main)
Format settings, Endianness : Big
Codec ID : A_AC3
Duration : 1h 28mn
Bit rate mode : Constant
Bit rate : 192 Kbps
Channel(s) : 2 channels
Channel positions : Front: L R
Sampling rate : 48.0 KHz
Compression mode : Lossy
Delay relative to video : -369ms
Stream size : 122 MiB (8%)
Title : VO_Игорь Степанов
Language : Russian
Default : Yes
Forced : No
DURATION : 01:28:39.200000000
NUMBER_OF_FRAMES : 166225
NUMBER_OF_BYTES : 127660800
_STATISTICS_WRITING_APP : mkvmerge v7.2.0 ('On Every Street') 32bit built on Sep 13 2014 15:42:11
_STATISTICS_WRITING_DATE_UTC : 2015-01-17 08:27:45
_STATISTICS_TAGS : BPS DURATION NUMBER_OF_FRAMES NUMBER_OF_BYTES
Audio #2
ID : 3
Format : AC-3
Format/Info : Audio Coding 3
Mode extension : CM (complete main)
Format settings, Endianness : Big
Codec ID : A_AC3
Duration : 1h 28mn
Bit rate mode : Constant
Bit rate : 192 Kbps
Channel(s) : 2 channels
Channel positions : Front: L R
Sampling rate : 48.0 KHz
Compression mode : Lossy
Delay relative to video : -240ms
Stream size : 122 MiB (8%)
Title : ENG
Language : English
Default : No
Forced : No
Text
ID : 4
Format : UTF-8
Codec ID : S_TEXT/UTF8
Codec ID/Info : UTF-8 Plain Text
Title : [Sub Rus] by daetoon1
Language : Russian
Default : No
Forced : No

Скриншоты

     
Вне форума [Профиль] [ЛС]
Похожие темы
Форум Тема Автор Торрент Отв. Посл. сообщение
./templates/default/images/folder_dl.gif ЖЗЛ, мемуары, биографии Фергюсон Китти - Стивен Хокинг: жизнь и наука [Росляков Михаил, 2016, 96 kbps, MP3] Omen
1 | 0

0 | 756

4

2016-12-05 01:00
Omen Последнее
Показать сообщения:    
Ответить на тему

Текущее время: Сегодня 10:24

Часовой пояс: GMT + 3



Вы не можете начинать темы
Вы не можете отвечать на сообщения
Вы не можете редактировать свои сообщения
Вы не можете удалять свои сообщения
Вы не можете голосовать в опросах
Вы не можете прикреплять файлы к сообщениям
Вы не можете скачивать файлы