Сегодня идет свободное скачивание без начисления Download

Парад Победы, посвященный 72-ой годовщине Победы в ВОВ 1941-1945г. (2017.05.09) WEB-DL [H.264/1080p-LQ] (Москва)

Ответить на тему
 
Автор
Сообщение

}{@R0N ®

Стаж: 2 года

Сообщений: 4984

Торрент-статистика

Пост 10-Май-2017 09:37

[Цитировать]

Парад Победы, посвященный 72-ой годовщине Победы в ВОВ 1941-1945г. (Москва)- Жанр: Документальный, военный парад
Описание:
Военный парад, посвященный 72-й годовщине Победы в Великой Отечественной войне.
Каждый год 9 мая во многих странах мира отмечают День Победы над немецко-фашистскими захватчиками. Но нигде этот праздник не празднуют с таким размахом, как в России. В 2017 году отмечается 72 год со Дня Победы.
Релиз от: svlesin
Продолжительность: 00:55:01
Качество видео: WEB-DL
Субтитры: Отсутствуют
Видео: AVC, 1920x1080 (16:9), 25.000 fps, 3 950 Kbps (0.076 bit/pixel)
Аудио: AC-3, 44.1 KHz, 2 ch, 192 Kbps, CBR

Mediainfo:

Код:
Общее
Уникальный идентификатор                 : 226876941065365677860686223969708965955 (0xAAAEE8D1A43E57329AC37B8754EC8043)
Полное имя                               : D:\[1]\Парад победы\Парад Победы. Москва (2017.05.09)_1080.mkv
Формат                                   : Matroska
Версия формата                           : Version 4 / Version 2
Размер файла                             : 1,62 Гбайт
Продолжительность                        : 55 м.
Режим общего битрейта                    : Переменный
Общий поток                              : 4226 Кбит/сек
Название фильма                          : Парад Победы. Москва (2017.05.09)_1080_nnmclub.to
Дата кодирования                         : UTC 2017-05-09 08:31:22
Программа кодирования                    : mkvmerge v7.6.0 ('Garden of Dreams') 64bit built on Feb  8 2015 13:04:34
Библиотека кодирования                   : libebml v1.3.1 + libmatroska v1.4.2
DURATION                                 : 00:55:01.878000000
NUMBER_OF_FRAMES                         : 94800
NUMBER_OF_BYTES                          : 79245060
_STATISTICS_WRITING_APP                  : mkvmerge v7.6.0 ('Garden of Dreams') 64bit built on Feb  8 2015 13:04:34
_STATISTICS_WRITING_DATE_UTC             : 2017-05-09 08:31:22
_STATISTICS_TAGS                         : BPS DURATION NUMBER_OF_FRAMES NUMBER_OF_BYTES
Видео
Идентификатор                            : 1
Формат                                   : AVC
Формат/Информация                        : Advanced Video Codec
Профиль формата                          : [url=mailto:High@L4.0]High@L4.0[/url]
Параметр CABAC формата                   : Да
Параметр ReFrames формата                : 4 кадра
Идентификатор кодека                     : V_MPEG4/ISO/AVC
Продолжительность                        : 55 м.
Вид битрейта                             : Переменный
Битрейт                                  : 3950 Кбит/сек
Максимальный битрейт                     : 4500 Кбит/сек
Ширина                                   : 1920 пикселей
Высота                                   : 1080 пикселей
Соотношение сторон                       : 16:9
Режим частоты кадров                     : Постоянный
Частота кадров                           : 25,000 кадров/сек
Цветовое пространство                    : YUV
Субдискретизация насыщенности            : 4:2:0
Битовая глубина                          : 8 бит
Тип развёртки                            : Прогрессивная
Бит/(Пиксели*Кадры)                      : 0.076
Размер потока                            : 1,52 Гбайт (93%)
Default                                  : Да
Forced                                   : Нет
Аудио
Идентификатор                            : 2
Формат                                   : AC-3
Формат/Информация                        : Audio Coding 3
Расширение режима                        : CM (complete main)
Параметр Endianness формата              : Big
Идентификатор кодека                     : A_AC3
Продолжительность                        : 55 м.
Вид битрейта                             : Постоянный
Битрейт                                  : 192 Кбит/сек
Каналы                                   : 2 канала
Расположение каналов                     : Front: L R
Частота                                  : 44,1 КГц
Битовая глубина                          : 16 бит
Метод сжатия                             : С потерями
Размер потока                            : 75,6 Мбайт (5%)
Default                                  : Да
Forced                                   : Нет
Скриншоты:
       
Вне форума [Профиль] [ЛС]
Показать сообщения:    
Ответить на тему

Текущее время: Сегодня 11:57

Часовой пояс: GMT + 3



Вы не можете начинать темы
Вы не можете отвечать на сообщения
Вы не можете редактировать свои сообщения
Вы не можете удалять свои сообщения
Вы не можете голосовать в опросах
Вы не можете прикреплять файлы к сообщениям
Вы не можете скачивать файлы