Сегодня идет свободное скачивание без начисления Download

Изучая природу 3D / Experience Nature 3D (2012) BDRip [H.264/1080p] [3D] [Вертикальная анаморфная стереопара]

Ответить на тему
 
Автор
Сообщение

}{@R0N ®

Стаж: 1 год 10 месяцев

Сообщений: 4684

Торрент-статистика

Пост 01-Май-2017 11:35

[Цитировать]

Изучая природу 3D
Experience Nature 3D
- Производство: KSM (Германия)
Жанр: Документальный
Режиссер: Аттила Тенки
Описание:
Французские Альпы по праву считаются одним из самых живописных уголков Земли. Авторы фильма приглашают совершить увлекательное путешествие в этот потрясающий мир зеленых склонов и величественных вершин. Любоваться разнообразными красотами уникальной местности можно бесконечно: белоснежные пики, окутанные пушистыми облаками, бурлящие реки, кристально чистые озера и изумрудные луга составляют уникальную биосистему, в которой все взаимосвязано. Каждый поворот горной тропинки сулит новые впечатления и неожиданные открытия, которые становятся по-настоящему яркими в формате 3D.

Возраст: 0+ (для любой зрительской аудитории)
Продолжительность: 01:00:39
Качество видео: BDRip
Перевод: Одноголосый закадровый, профессиональный
Субтитры: русские (полные)
Видео: AVC/H.264, 1920x1080, ~13.7 mbps
Аудио #1: AC3, 6 ch, 640 kbps - русский
Аудио #2: DTS, 6 ch, 1509 kbps - английский

Mediainfo:

Format                                   : Matroska
Format version : Version 4 / Version 2
File size : 6.83 GiB
Duration : 1h 0mn
Overall bit rate : 16.2 Mbps
Movie name : EXPERIENCE_NATURE_3D.Title4
Encoded date : UTC 2017-05-01 05:02:47
Writing application : mkvmerge v9.8.0 ('Kuglblids') 64bit
Writing library : libebml v1.3.4 + libmatroska v1.4.5
Video
ID : 1
Format : AVC
Format/Info : Advanced Video Codec
Format profile : [url=mailto:High@L4.1]High@L4.1[/url]
Format settings, CABAC : Yes
Format settings, ReFrames : 4 frames
Codec ID : V_MPEG4/ISO/AVC
Duration : 1h 0mn
Bit rate : 13.7 Mbps
Width : 1 920 pixels
Height : 1 080 pixels
Display aspect ratio : 16:9
Frame rate mode : Constant
Frame rate : 23.976 fps
Color space : YUV
Chroma subsampling : 4:2:0
Bit depth : 8 bits
Scan type : Progressive
Bits/(Pixel*Frame) : 0.276
Stream size : 5.79 GiB (85%)
Writing library : x264 core 142
Encoding settings : cabac=1 / ref=4 / deblock=1:-3:-3 / analyse=0x3:0x133 / me=umh / subme=9 / psy=0 / mixed_ref=1 / me_range=24 / chroma_me=1 /
trellis=2 / 8x8dct=1 / cqm=0 / deadzone=21,11 / fast_pskip=0 / chroma_qp_offset=0 / threads=4 / lookahead_threads=1 / sliced_threads=0 / nr=0 / decimate=1 / interlaced=0 /
bluray_compat=0 / constrained_intra=0 / bframes=6 / b_pyramid=0 / b_adapt=2 / b_bias=0 / direct=2 / weightb=1 / open_gop=0 / weightp=2 / keyint=240 / keyint_min=25 /
scenecut=40 / intra_refresh=0 / rc=crf / mbtree=0 / crf=18.0 / qcomp=0.60 / qpmin=0 / qpmax=69 / qpstep=4 / ip_ratio=1.40 / pb_ratio=1.30 / aq=1:1.00
Default : Yes
Forced : No
Audio #1
ID : 2
Format : AC-3
Format/Info : Audio Coding 3
Mode extension : CM (complete main)
Format settings, Endianness : Big
Codec ID : A_AC3
Duration : 1h 0mn
Bit rate mode : Constant
Bit rate : 640 Kbps
Channel(s) : 6 channels
Channel positions : Front: L C R, Side: L R, LFE
Sampling rate : 48.0 KHz
Bit depth : 16 bits
Compression mode : Lossy
Delay relative to video : 27ms
Stream size : 276 MiB (4%)
Language : Russian
Default : Yes
Forced : No
Audio #2
ID : 3
Format : DTS
Format/Info : Digital Theater Systems
Mode : 16
Format settings, Endianness : Big
Codec ID : A_DTS
Duration : 1h 0mn
Bit rate mode : Constant
Bit rate : 1 509 Kbps
Channel(s) : 6 channels
Channel positions : Front: L C R, Side: L R, LFE
Sampling rate : 48.0 KHz
Bit depth : 24 bits
Compression mode : Lossy
Stream size : 651 MiB (9%)
Language : English
Default : No
Forced : No
Text
ID : 4
Format : UTF-8
Codec ID : S_TEXT/UTF8
Codec ID/Info : UTF-8 Plain Text
Title : Subtitles/Captions
Language : Russian
Default : Yes
Forced : No
Скриншоты:
       
Вне форума [Профиль] [ЛС]
Похожие темы
Форум Тема Автор Торрент Отв. Посл. сообщение
./templates/default/images/folder_dl.gif Компьютерная литература Эрик Мэтиз | Изучаем Python. Программирование игр, визуализация данных, веб-приложения (2017) [PDF, EPUB] }{@R0N
1 | 0

0 | 310

9

2016-10-29 21:57
}{@R0N Последнее
Показать сообщения:    
Ответить на тему

Текущее время: Сегодня 21:11

Часовой пояс: GMT + 3



Вы не можете начинать темы
Вы не можете отвечать на сообщения
Вы не можете редактировать свои сообщения
Вы не можете удалять свои сообщения
Вы не можете голосовать в опросах
Вы не можете прикреплять файлы к сообщениям
Вы не можете скачивать файлы