Today is a free download without charge Download

Она единственная<wbr> / Shes the One (Bishop / Wicked Pictures) [2012 г., Teens, Dogging, Feature, DVDRip] (Brooklyn Lee, Carolyn Reese, Kaylani Lei, Lexi Belle, Misty Stone, Alec Knight, Ryan McLane, Xander Corvus, Kris Slater) [RUS]

Reply to topic
 
Author
Message

XP1971 ®

Торрент-статистика

Post 16-Apr-2017 09:53

[Quote]

-Она единственная

Shes the One
-- Страна: USA
Режиссер: Bishop
Год выпуска: 2012 г.
Студия: Wicked Pictures
Продолжительность: 02:30:41
Жанр: Teens, Dogging, Feature
Оригинальный аудиопоток: английский
Перевод: Профессиональный (двухголосый, закадровый)-В ролях:
Brooklyn Lee, Carolyn Reese, Kaylani Lei, Lexi Belle, Misty Stone, Alec Knight, Ryan McLane, Xander Corvus, Kris Slater-Оригинальное описание:
For the last several months, Ryan (Xander Corvus) has been coming inot the diner where Rachel (Lexi Belle) works. Is it the food, or does he want something that's not on the menu? Their attraction is obvious to everyone. When Ryan finally steps up to ask Rachel out, he finds her in the arms of another man (Kris Slater) and backs off. Looks can be deceiving however, and the other man is actually Rachel's visiting brother who eventually teams up with Rachel's best friend (Brooklyn Lee) to help track Ryan down and make sure the pair have another chance at love...-Описание на русском:
Тормоз Райан несколько месяцев ходил в ресторан, где работала симпатичная официантка Рейчел. Действительно ресторан так хорош, или молодому ловеласу захотелось распробовать того, чего нет в меню – обольстительную Рейчел? Взаимная симпатия молодых людей давно перестала кого-либо удивлять, но когда Райан решился наконец-то поговорить с красоткой, та ответила, что у нее уже есть молодой человек. А в это время все вокруг трахаются, трахаются... А эти двое всё разговаривают...
А что же в итоге? Райан всё-же вскарабкался на Рейчел аки насильнег, ибо на жену уже не стоит квартал как, а у голодной сучки Рейчел на самом деле уже давно не было глубоких подкожных инъекций толстого розового шприца.-
Контейнер: MKV
Аудио кодек: AC3
Видео кодек: XviD
Cубтитры: отсутствуют
Качество видео: DVDRip
Аудио: Audio Coding 3 | 48.0 KHz | 2 ch | 192.0 Kbps
Видео: MPEG-4 Visual | 624х352 | 1130 Кbps | 23.976 fps | 0.215 bit/pixel

Media Info

Код:
Общее
Уникальный идентификатор : 246303185934038313965658811827718039988 (0xB94C44A36F981518B2368DFBA889A9B4)
Полное имя : She's the One (Она единственная)_[/*spam*/].mkv
Формат : Matroska
Версия формата : Version 2
Размер файла : 1,42 Гбайт
Продолжительность : 2 ч. 30 м.
Общий поток : 1349 Кбит/сек
Дата кодирования : UTC 2016-08-15 15:11:40
Программа кодирования : mkvmerge v4.9.1 ('Ich will') сборка от Jul 11 2011 23:53:15
Библиотека кодирования : libebml v1.2.1 + libmatroska v1.1.1
Видео
Идентификатор : 1
Формат : MPEG-4 Visual
Профиль формата : Advanced [email protected]/*  */
Параметр BVOP формата : Нет
Параметр QPel формата : Нет
Параметр GMC формата : Без точки перехода
Параметр матрицы формата : Default (MPEG)
Идентификатор кодека : V_MS/VFW/FOURCC / XVID
Идентификатор кодека/Подсказка : XviD
Продолжительность : 2 ч. 30 м.
Битрейт : 1130 Кбит/сек
Ширина : 624 пикселя
Высота : 352 пикселя
Соотношение сторон : 16:9
Режим частоты кадров : Постоянный
Частота кадров : 23,976 (24000/1001) кадра/сек
Цветовое пространство : YUV
Субдискретизация насыщенности : 4:2:0
Битовая глубина : 8 бит
Тип развёртки : Прогрессивная
Метод сжатия : С потерями
Бит/(Пиксели*Кадры) : 0.215
Размер потока : 1,19 Гбайт (84%)
Библиотека кодирования : XviD 64
Default : Да
Forced : Нет
Аудио
Идентификатор : 2
Формат : AC-3
Формат/Информация : Audio Coding 3
Параметр Endianness формата : Big
Режим смешивания : Header stripping
Идентификатор кодека : A_AC3
Продолжительность : 2 ч. 30 м.
Вид битрейта : Постоянный
Битрейт : 192 Кбит/сек
Каналы : 2 канала
Расположение каналов : Front: L R
Частота : 48,0 КГц
Частота кадров : 31,250 кадров/сек (1536 spf)
Битовая глубина : 16 бит
Метод сжатия : С потерями
Размер потока : 207 Мбайт (14%)
ServiceKind/String : Complete Main
Default : Да
Forced : Нет

Скринлист

Скриншоты

                                         
-Спасибо Дядя Витя за создание этого релиза.-
 
Display posts from previous:    
Reply to topic

The time now is: Today 11:03

All times are GMT + 3 Hours



You cannot post new topics in this forum
You cannot reply to topics in this forum
You cannot edit your posts in this forum
You cannot delete your posts in this forum
You cannot vote in polls in this forum
You cannot attach files in this forum
You cannot download files in this forum