Today is a free download without charge Download

Рыжая Мэйделин такая юная, а уже прыгает на члене [2014 г., Anal Sex, Blowjob, Hardcore, Teens, SiteRip] (Madelyn)

Reply to topic
 
Author
Message

XP1971 ®

Торрент-статистика

Post 07-Apr-2017 21:58

[Quote]

-Рыжая Мэйделин такая юная,
а уже прыгает на члене

-- Студия: N/A
Режиссер: N/A
Страна: Россия
Год выпуска: 2014 г.
Продолжительность: 00:26:01
Оригинальный аудиопоток: русский
Жанр: Anal Sex, Blowjob, Hardcore, Teens-В ролях: Madelyn-Описание:
Сидит как дура вся такая рыжая скромница на кровати, а вокруг игрушки мягкие. И вдруг подходит к ней голый мужик и начинает снимать с неё тряпьё нестираное. Шмяк - запущенная мужиком в полёт юбка в углу сломала чьи-то носки, херакс - летящая майка погнула папин галстук. Только хотела было поздороваться с мужиком, а рот уже занят. А потом пошло всё через жопу. Смотрим и сочувствуем рыжей)-
Контейнер: MP4
Аудио кодек: AC3
Видео кодек: AVC
Cубтитры: отсутствуют
Качество видео: SiteRip
Аудио: Audio Coding 3 | 44.1 KHz | 2 ch | 128.0 Kbps
Видео: Adv. Video | 1280x720 | 5408 Kbps | 25.0 fps | 0.235 bit/pixel

Media Info

Код:
Общее
Полное имя : Madelyn_HD_[....].mp4
Формат : MPEG-4
Профиль формата : Base Media
Идентификатор кодека : isom
Размер файла : 1,01 Гбайт
Продолжительность : 26 м.
Общий поток : 5538 Кбит/сек
Дата кодирования : UTC 2014-05-29 07:29:23
Дата пометки : UTC 2014-05-29 07:29:23
Видео
Идентификатор : 1
Формат : AVC
Формат/Информация : Advanced Video Codec
Профиль формата : [email protected]/*  */
Параметр CABAC формата : Нет
Параметр ReFrames формата : 1 кадр
Идентификатор кодека : avc1
Идентификатор кодека/Информация : Advanced Video Coding
Продолжительность : 26 м.
Битрейт : 5408 Кбит/сек
Максимальный битрейт : 9694 Кбит/сек
Ширина : 1280 пикселей
Высота : 720 пикселей
Соотношение сторон : 16:9
Режим частоты кадров : Постоянный
Частота кадров : 25,000 кадров/сек
Цветовое пространство : YUV
Субдискретизация насыщенности : 4:2:0
Битовая глубина : 8 бит
Тип развёртки : Прогрессивная
Бит/(Пиксели*Кадры) : 0.235
Размер потока : 1007 Мбайт (98%)
Библиотека кодирования : x264 core 130 r2273 b3065e6
Дата кодирования : UTC 2014-05-29 07:29:23
Дата пометки : UTC 2014-05-29 07:29:28
Аудио
Идентификатор : 2
Формат : AC-3
Формат/Информация : Audio Coding 3
Расширение режима : CM (complete main)
Параметр Endianness формата : Big
Идентификатор кодека : ac-3
Продолжительность : 26 м.
Вид битрейта : Постоянный
Битрейт : 128 Кбит/сек
Каналы : 2 канала
Расположение каналов : Front: L R
Частота : 44,1 КГц
Битовая глубина : 16 бит
Метод сжатия : С потерями
Размер потока : 23,8 Мбайт (2%)
Дата кодирования : UTC 2014-05-29 07:29:28
Дата пометки : UTC 2014-05-29 07:29:28

Скринлист

Скриншоты

                   
 
Display posts from previous:    
Reply to topic

The time now is: Today 00:48

All times are GMT + 3 Hours



You cannot post new topics in this forum
You cannot reply to topics in this forum
You cannot edit your posts in this forum
You cannot delete your posts in this forum
You cannot vote in polls in this forum
You cannot attach files in this forum
You cannot download files in this forum