Today is a free download without charge Download

Сибирский бурильщик (Сергей Логинов / Кинокомпания «Клубничка») [2009 г., Feature, Russian Girls, Teens, DVDRip] (Дмитрий Стрелков, Люся Ресничкина, Тина Радзивилл, Лида Хорошева)

Reply to topic
 
Author
Message

XP1971 ®

Торрент-статистика

Post 01-Apr-2017 20:22

[Quote]

-Сибирский бурильщик-- Страна: Russia
Год выпуска: 2009 г.
Режиссер: Сергей Логинов
Продолжительность: 02:38:00
Жанр: Feature, Russian Girls, Teens
Оригинальный аудиопоток: русский
Студия: Кинокомпания «Клубничка»-В ролях:
Дмитрий Стрелков, Люся Ресничкина,
Тина Радзивилл, Лида Хорошева-Описание:
В Москву, к продюсеру «Клубнички» Сергею Логинову приезжает молодой шахтёр из Сибири Дмитрий. Герой таёжных рудников собирается перечпокать всех девушек западной части России. Много текста, шуток и прибауток, грубости, глупости и пошлости. Таких фильмов вам прежде смотреть не приходилось! Это что-то с чем-то! Ускоренные моменты, где участники событий говорят комичными голосами дополнены короткими клиповыми кусочками под музыку, посвящёнными попочкам, сисечкам, вульвочкам и процессу фривольного миньетирования. В некоторой смысле треть фильма представляет собой видеоклип. Вскорости половое глумленье уже вовсю бздит в пространстве. У девушки, засосавшей глубоко в рот, требуют признать факт засоса в культурно-оценочном варианте. Другой девице засунули член в жопу и чпокают её в самую изюминку, якобы для коррекции попы. Третьей девице во влагалище заливают антисептик и потом все вместе дружно ищут её мочеиспускательный канал чтобы залить и туда, но найти канал не смогли! А ещё Дима с продюсером разглядывали и разнюхивали девичьи письки. В итоге одну девицу трахнули 1 раз, вторую 2 раза, а третью тоже 2 раза, но коротко. Бытие наполнилось ржачкой, а девичья морда спуском. В конце фильма, удовлетворённый шахтёр экспромтом бренчит на гитаре песни в духе «Девочки красивые любят [email protected]/* */..» и «Но в Сибири и на Дальнем Востоке можно драть их за бутылку пива…», а также «в жопу можно не давать, но сосать обязаны…», заканчивая перлом «Я люблю сношацца каждый день, но здоровья нужно очень много, благо я метис, я сибиряк, член от бога, член от бога»... Приятного просмотра.-
Контейнер: AVI
Аудио кодек: AC3
Видео кодек: AVC
Cубтитры: отсутствуют
Качество видео: DVDRip
Аудио: Advanced Audio | 48.0 KHz | 2 ch | 128.0 Kbps
Видео: AVC | 720х576 | 2044 Кbps | 25.0 fps | 0.197 bit/pixel

Media Info

Код:
Общее
Полное имя : Сибирский бурильщик_[...].avi
Формат : AVI
Формат/Информация : Audio Video Interleave
Профиль формата : OpenDML
Размер файла : 2,41 Гбайт
Продолжительность : 2 ч. 38 м.
Общий поток : 2182 Кбит/сек
Программа кодирования : Lavf56.36.100
Видео
Идентификатор : 1
Формат : AVC
Формат/Информация : Advanced Video Codec
Профиль формата : [email protected]/*  */
Параметр CABAC формата : Да
Параметр ReFrames формата : 1 кадр
Параметр GOP формата : M=1, N=25
Идентификатор кодека : H264
Продолжительность : 2 ч. 38 м.
Битрейт : 2044 Кбит/сек
Ширина : 720 пикселей
Высота : 576 пикселей
Соотношение сторон : 16:9
Соотношение сторон в оригинале : 1,738
Частота кадров : 25,000 кадров/сек
Стандарт вещания : PAL
Цветовое пространство : YUV
Субдискретизация насыщенности : 4:2:0
Битовая глубина : 8 бит
Тип развёртки : Прогрессивная
Бит/(Пиксели*Кадры) : 0.197
Размер потока : 2,26 Гбайт (94%)
Цветовой диапазон : Limited
Аудио
Идентификатор : 0
Формат : AC-3
Формат/Информация : Audio Coding 3
Расширение режима : CM (complete main)
Параметр Endianness формата : Big
Идентификатор кодека : 2000
Продолжительность : 2 ч. 38 м.
Вид битрейта : Постоянный
Битрейт : 128 Кбит/сек
Каналы : 2 канала
Расположение каналов : Front: L R
Частота : 48,0 КГц
Битовая глубина : 16 бит
Метод сжатия : С потерями
Размер потока : 145 Мбайт (6%)
Выравнивание : Соединение по промежуткам
Продолжительность промежутка : 40 мс. (1,00 видеокадр)

Скринлист

Скриншоты

                                         
 
Display posts from previous:    
Reply to topic

The time now is: Today 00:44

All times are GMT + 3 Hours



You cannot post new topics in this forum
You cannot reply to topics in this forum
You cannot edit your posts in this forum
You cannot delete your posts in this forum
You cannot vote in polls in this forum
You cannot attach files in this forum
You cannot download files in this forum