Today is a free download without charge Download

Кремпай и молодые девки / Little Girls And Cream Pies (Dirty Laundry Pictures) [2015 г., Cream Pie, Cumshots, Hardcore, HD DVDRip, 720p] (Bethany Sweet, Ellen, Lisa, Andie)

Reply to topic
 
Author
Message

XP1971 ®

Торрент-статистика

Post 27-Mar-2017 18:54

[Quote]

-Кремпай и молодые девки

Little Girls And Cream Pies
-- Режиссер: N/A
Страна: Russia
Год выпуска: 2015 г.
Перевод: Отсутствует
Студия: Dirty Laundry Pictures
Продолжительность: 01:17:30
Оригинальный аудиопоток: русский
Жанр: Cream Pie, Cumshots, Hardcore-В ролях:
Bethany Sweet, Ellen, Lisa , Andie-Оригинальное описание:
When I offered this little teenage girl a cream pie, I don't believe she understood what kind of cream pie I was talking about. Well, it didn't take very long before she found out and SHE LIKED IT! Young and full of cream, what's better than that?-Описание на русском:
И вполне себе с удовольствием переносят девки такое к себе отношение как загнуть их рачком да внутрь наспускать. То ли от скукотищи житейской, а то ли так режиссёр сказал, но в этом кино всё кончается девкам внутрь. Ну а потом естессно покрупнее кадры как всё просиццо наружу: с бульканьем, чваканьем и пузырением аки из вулкана с мутной лавой.-
Контейнер: MP4
Аудио кодек: AAC
Видео кодек: AVC
Cубтитры: отсутствуют
Качество видео: HD DVDRip
Стандарт разрешения: 720p
Аудио: Advanced Audio | 44.1 KHz | 2 ch | 128.0 Kbps
Видео: AVC | 1280х720 | 2811 Кbps | 30.0 fps | 0.102 bit/pixel

Обложка

Media Info

Код:
Общее
Полное имя : Little Girls And Cream Pies_[....].mp4
Формат : MPEG-4
Профиль формата : Base Media
Идентификатор кодека : isom (isom/iso2/avc1/mp41)
Размер файла : 1,59 Гбайт
Продолжительность : 1 ч. 17 м.
Режим общего битрейта : Переменный
Общий поток : 2943 Кбит/сек
Дата кодирования : UTC 1970-01-01 00:00:00
Дата пометки : UTC 1970-01-01 00:00:00
Программа кодирования : Lavf52.34.0
Видео
Идентификатор : 1
Формат : AVC
Формат/Информация : Advanced Video Codec
Профиль формата : [email protected]/*  */
Параметр CABAC формата : Да
Параметр ReFrames формата : 3 кадра
Идентификатор кодека : avc1
Идентификатор кодека/Информация : Advanced Video Coding
Продолжительность : 1 ч. 17 м.
Битрейт : 2811 Кбит/сек
Ширина : 1280 пикселей
Высота : 720 пикселей
Соотношение сторон : 16:9
Режим частоты кадров : Постоянный
Частота кадров : 30,000 кадров/сек
Цветовое пространство : YUV
Субдискретизация насыщенности : 4:2:0
Битовая глубина : 8 бит
Тип развёртки : Прогрессивная
Бит/(Пиксели*Кадры) : 0.102
Размер потока : 1,52 Гбайт (95%)
Библиотека кодирования : Zencoder Video Encoding System
Дата кодирования : UTC 1970-01-01 00:00:00
Дата пометки : UTC 1970-01-01 00:00:00
Аудио
Идентификатор : 2
Формат : AAC
Формат/Информация : Advanced Audio Codec
Профиль формата : LC
Идентификатор кодека : 40
Продолжительность : 1 ч. 17 м.
Вид битрейта : Переменный
Битрейт : 128 Кбит/сек
Каналы : 2 канала
Расположение каналов : Front: L R
Частота : 44,1 КГц
Частота кадров : 43,066 кадра/сек (1024 spf)
Метод сжатия : С потерями
Размер потока : 70,9 Мбайт (4%)
Дата кодирования : UTC 1970-01-01 00:00:00
Дата пометки : UTC 1970-01-01 00:00:00

Скринлист

Скриншоты

                                   
 
Display posts from previous:    
Reply to topic

The time now is: Today 23:32

All times are GMT + 3 Hours



You cannot post new topics in this forum
You cannot reply to topics in this forum
You cannot edit your posts in this forum
You cannot delete your posts in this forum
You cannot vote in polls in this forum
You cannot attach files in this forum
You cannot download files in this forum