Today is a free download without charge Download

На массаж (Teendreams) [2017 г., Oral Sex, Anal Sex, Teens, HDRip, 1080p] (Bailey)

Reply to topic
 
Author
Message

XP1971 ®

Торрент-статистика

Post 17-Feb-2017 20:51

[Quote]

-На массаж-- Режиссер: N/A
Страна: Россия
Студия: Teendreams
Год выпуска: 2017 г.
Продолжительность: 00:22:15
Жанр: Oral Sex, Anal Sex, Teens
Оригинальный аудиопоток: русский-В ролях:
Bailey-Описание:
Сценарий ролика прост, что и неудивительно в этом разделе. Девка Бэйла, запыхамшись от трудов праведных у своего 16К20, пришлёпала на массаж. Скинула трули, цепуру и прочую женскую дребедень, кинула свои кости на топчан из кожзама, вздохнула и решила забыться. И вот массируют её, массируют, и чувствует она, а пальцы массажиста уже передок лохматят, ахтыжмать продолжай уж охальнег, остановишься - прибью, ну и так далее. На этот раз массажист попался нахальный, сунул девке в жопу как по маслу) В общем, смотрим комедию положений и если ваша сейчас на массаже - а нукась, позвоните-ка ей прям щаз, мало ли там чего)-
Контейнер: MP4
Аудио кодек: AAC
Видео кодек: AVC
Качество видео: HDRip
Cубтитры: отсутствуют
Стандарт разрешения: 1080p
Аудио: Advanced Audio | 48.0 KHz | 2 ch | 192.0 Kbps
Видео: AVC | 1920х1080 | 8000 Кbps | 24.0 fps | 0.161 bit/pixel

Media Info

Код:
Общее
Полное имя : Bailey_Teendreams_[....].mp4
Формат : MPEG-4
Профиль формата : Base Media
Идентификатор кодека : isom
Размер файла : 1,27 Гбайт
Продолжительность : 22 м.
Общий поток : 8196 Кбит/сек
Программа кодирования : Lavf55.30.100
Видео
Идентификатор : 1
Формат : AVC
Формат/Информация : Advanced Video Codec
Профиль формата : [email protected]/*  */
Параметр CABAC формата : Да
Параметр ReFrames формата : 4 кадра
Идентификатор кодека : avc1
Идентификатор кодека/Информация : Advanced Video Coding
Продолжительность : 22 м.
Битрейт : 8000 Кбит/сек
Ширина : 1920 пикселей
Высота : 1080 пикселей
Соотношение сторон : 16:9
Режим частоты кадров : Постоянный
Частота кадров : 24,000 кадра/сек
Цветовое пространство : YUV
Субдискретизация насыщенности : 4:2:0
Битовая глубина : 8 бит
Тип развёртки : Прогрессивная
Бит/(Пиксели*Кадры) : 0.161
Размер потока : 1,24 Гбайт (98%)
Библиотека кодирования : x264 core 142 r2389 956c8d8
Язык : English
Аудио
Идентификатор : 2
Формат : AAC
Формат/Информация : Advanced Audio Codec
Профиль формата : LC
Идентификатор кодека : 40
Продолжительность : 22 м.
Вид битрейта : Постоянный
Битрейт : 192 Кбит/сек
Каналы : 2 канала
Расположение каналов : Front: L R
Частота : 48,0 КГц
Метод сжатия : С потерями
Размер потока : 30,6 Мбайт (2%)
Язык : English

Скринлист

Скриншоты

                                                           
 

Михайлова Нана

Longevity: 1 month 23 days

Posts: 3

Торрент-статистика

Post 30-Jul-2019 20:57 (after 2 years 5 months)

[Quote]

уберите из медициы, пожалуйста
Other forum [Profile] [PM]
Display posts from previous:    
Reply to topic

The time now is: Today 06:53

All times are GMT + 3 Hours



You cannot post new topics in this forum
You cannot reply to topics in this forum
You cannot edit your posts in this forum
You cannot delete your posts in this forum
You cannot vote in polls in this forum
You cannot attach files in this forum
You cannot download files in this forum