Today is a free download without charge Download

Утро понедельника симпатичной брюнетки (TrickyMasseur / TeenMegaWorld) [2017 г., Fuckingmassage, Teens, SiteRip] (Lovenia Lux)

Reply to topic
 
Author
Message

XP1971 ®

Торрент-статистика

Post 14-Feb-2017 00:42

[Quote]

-Утро понедельника симпатичной брюнетки
-- Режиссер: N/A
Страна: Russia
Год выпуска: 2017 г.
Жанр: Fuckingmassage, Teens
Продолжительность: 00:20:20
Оригинальный аудиопоток: русский
Студия: TrickyMasseur / TeenMegaWorld-В ролях:
Lovenia Lux-Описание:
Очаровательная брюнетка с тонкой талией, длинными волосами и задорными сиськами раздевается на массаж. Она любит натираться медком да маслом во всех интимных местах и позволяет массажировать этому парню всё что хочешь. Прекрасная брюнетка раздвигает ноги шире, ведь так глубже входит. Миссионерская поза меняется в процессе на собачью. После того, как ее ляжки дрогнули от оргазма, и чтобы заставить его кончить, она опускается на колени и берет его член своими губами. Таким образом, этот массаж заканчивается для массажиста пустыми яйцами, а для нее легким белковым завтраком. Утро счастливой женщины начинается не с кофе.
А рабочий день тем временем набирал обороты.-
Контейнер: MP4
Аудио кодек: AAC
Видео кодек: AVC
Cубтитры: отсутствуют
Качество видео: SiteRip
Аудио: Advanced Audio | 48.0 KHz | 2 ch | 317.0 Kbps
Видео: AVC | 720х404 | 1999 Кbps | 23.976 fps | 0.287 bit/pixel

Media Info

Код:
Общее
Полное имя : Lovenia_Lux_TrickyMasseur_[/*spam*/].mp4
Формат : MPEG-4
Профиль формата : Base Media / Version 2
Идентификатор кодека : mp42
Размер файла : 338 Мбайт
Продолжительность : 20 м.
Режим общего битрейта : Переменный
Общий поток : 2321 Кбит/сек
Дата кодирования : UTC 2017-02-02 09:30:49
Дата пометки : UTC 2017-02-02 09:30:50
©TIM : 00:00:00:00
©TSC : 24000
©TSZ : 1001
Видео
Идентификатор : 1
Формат : AVC
Формат/Информация : Advanced Video Codec
Профиль формата : [email protected]/*  */
Параметр CABAC формата : Да
Параметр ReFrames формата : 3 кадра
Параметр GOP формата : M=4, N=23
Идентификатор кодека : avc1
Идентификатор кодека/Информация : Advanced Video Coding
Продолжительность : 20 м.
Битрейт : 1999 Кбит/сек
Ширина : 720 пикселей
Высота : 404 пикселя
Соотношение сторон : 16:9
Режим частоты кадров : Постоянный
Частота кадров : 23,976 кадра/сек
Стандарт вещания : NTSC
Цветовое пространство : YUV
Субдискретизация насыщенности : 4:2:0
Битовая глубина : 8 бит
Тип развёртки : Прогрессивная
Бит/(Пиксели*Кадры) : 0.287
Размер потока : 291 Мбайт (86%)
Язык : English
Дата кодирования : UTC 2017-02-02 09:30:49
Дата пометки : UTC 2017-02-02 09:30:49
Цветовой диапазон : Limited
Основные цвета : BT.601 NTSC
Характеристики трансфера : BT.601
Коэффициенты матрицы : BT.601
Аудио
Идентификатор : 2
Формат : AAC
Формат/Информация : Advanced Audio Codec
Профиль формата : LC
Идентификатор кодека : 40
Продолжительность : 20 м.
Продолжительность оригинала : 20 м.
Вид битрейта : Переменный
Битрейт : 317 Кбит/сек
Максимальный битрейт : 356 Кбит/сек
Каналы : 2 канала
Расположение каналов : Front: L R
Частота : 48,0 КГц
Метод сжатия : С потерями
Размер потока : 46,2 Мбайт (14%)
Размер потока оригинала : 46,2 Мбайт (14%)
Язык : English
Дата кодирования : UTC 2017-02-02 09:30:49
Дата пометки : UTC 2017-02-02 09:30:49

Скринлист

Скриншоты

                                                           

Девки, чистим зубы правильно

 
Display posts from previous:    
Reply to topic

The time now is: Today 16:58

All times are GMT + 3 Hours



You cannot post new topics in this forum
You cannot reply to topics in this forum
You cannot edit your posts in this forum
You cannot delete your posts in this forum
You cannot vote in polls in this forum
You cannot attach files in this forum
You cannot download files in this forum