Today is a free download without charge Download

Служебный Роман / Office Encounters (Brad Armstrong / Wicked Pictures) [2011 г., Feature, Dogging, Oral Sex, DVDRip] (India Summer, Jack Lawrence, Jessica Drake, Asa Akira, Johnny Castle, Lexi Swallows, Rocco Reed, Tommy Gunn) [RUS]

Reply to topic
 
Author
Message

XP1971 ®

Торрент-статистика

Post 28-Jan-2017 11:48

[Quote]

-Служебный Роман

Office Encounters

Страна: USA
Год выпуска: 2011 г.
Студия: Wicked Pictures
Режиссер: Brad Armstrong
Продолжительность: 01:41:51
Жанр: Feature, Dogging, Oral Sex
Оригинальный аудиопоток: английский
Перевод: Профессиональный (одноголосый, закадровый)-В ролях:
India Summer, Jack Lawrence, Jessica Drake, Asa Akira, Johnny Castle, Lexi Swallows, Rocco Reed, Tommy Gunn-Оригинальное описание:
Have you ever fantasized about making love to a co-worker... or maybe even fallen in love with one? Linda (jessica drake) and Jim (Rocco Reed) are trying to keep their office affair a secret so they don't risk breaking company rules. But they're not the only ones taking part in the occasional afternoon desk clearing session. Secret rendezvous, after hour "meetings", and closed door sessions are all part of the sexy fun.-Описание на русском:
Ты когда-нибудь хотел потрахаться с коллегой на работе? Линда и Джим пытаются держать их служебный роман в секрете с тем, чтобы не нарушать правила компании, поэтому трахаются молча и по-бырому.
Но они не единственные, кто держит такого рода секрет. Когда же их тайна будет раскрыта, они должны будут принять решение: объявить всем, что они типа по любви или начать с кем-нить другой, новый “Служебный роман”. Вопчем, все перетрахались.-
Контейнер: MKV
Аудио кодек: AC3
Видео кодек: XviD
Cубтитры: отсутствуют
Качество видео: DVDRip
Аудио: Audio Coding 3 | 44.1 KHz | 2 ch | 192.0 Kbps
Видео: XviD | 720х404 | 1948 Кbps | 23.976 fps | 0.279 bit/pixel

Media Info

Код:
Общее
Уникальный идентификатор : 239600990768710487974761930050741328084 (0xB44178E783B6454D9C379F5188F9D8D4)
Полное имя : Office Encounters_[....].mkv
Формат : Matroska
Версия формата : Version 2
Размер файла : 1,55 Гбайт
Продолжительность : 1 ч. 41 м.
Общий поток : 2184 Кбит/сек
Дата кодирования : UTC 2016-08-17 12:06:30
Программа кодирования : mkvmerge v4.9.1 ('Ich will') сборка от Jul 11 2011 23:53:15
Библиотека кодирования : libebml v1.2.1 + libmatroska v1.1.1
Видео
Идентификатор : 1
Формат : xvid
Идентификатор кодека : V_MS/VFW/FOURCC / xvid
Продолжительность : 1 ч. 41 м.
Битрейт : 1948 Кбит/сек
Ширина : 720 пикселей
Высота : 404 пикселя
Соотношение сторон : 16:9
Режим частоты кадров : Постоянный
Частота кадров : 23,976 кадра/сек
Бит/(Пиксели*Кадры) : 0.279
Размер потока : 1,39 Гбайт (89%)
Default : Да
Forced : Нет
Аудио
Идентификатор : 2
Формат : AC-3
Формат/Информация : Audio Coding 3
Расширение режима : CM (complete main)
Параметр Endianness формата : Big
Режим смешивания : Header stripping
Идентификатор кодека : A_AC3
Продолжительность : 1 ч. 41 м.
Вид битрейта : Постоянный
Битрейт : 192 Кбит/сек
Каналы : 2 канала
Расположение каналов : Front: L R
Частота : 44,1 КГц
Битовая глубина : 16 бит
Метод сжатия : С потерями
Размер потока : 140 Мбайт (9%)
Default : Да
Forced : Нет

Скринлист

Скриншоты

                 
 
Display posts from previous:    
Reply to topic

The time now is: Today 22:07

All times are GMT + 3 Hours



You cannot post new topics in this forum
You cannot reply to topics in this forum
You cannot edit your posts in this forum
You cannot delete your posts in this forum
You cannot vote in polls in this forum
You cannot attach files in this forum
You cannot download files in this forum