Today is a free download without charge Download

Клонирование / Clonazione / La Poupеe qui dit oui (Pink'o / Marcus Dolby) [2001 г., Feature, Anal, DP, Threesome, DVDRip] (Anais Aphrodite, Eva Falk, Fanny Bravo, Maria Loren, Paola Valle, Andrea Monti, Andrea Nobili, Benito Boldi) [RUS]

Reply to topic
 
Author
Message

XP1971 ®

Торрент-статистика

Post 23-Jan-2017 19:49

[Quote]

-Клонирование

Clonazione / La Poupеe qui dit oui
-- Страна: ITALY
Режиссер: Pink'o
Год выпуска: 2001 г.
Студия: Marcus Dolby
Продолжительность: 02:05:44
Жанр: Feature, Anal, DP, Threesome
Оригинальный аудиопоток: английский
Перевод: Профессиональный (одноголосый) [SP Company]-В ролях:
Anais Aphrodite, Eva Falk, Fanny Bravo, Maria Loren, Paola Valle, Andrea Monti, Andrea Nobili, Benito Boldi, Max Cortes, Philippe Dean, Remigio Zampa, Roberto Malone-Оригинальное описание:
The topic of cloning is a difficult and dangerous its unexplored nature, and that Professor Sork decided to clone his ex-daughter. And it seems like everything is in place for clone - Tits, pussy, ass, ears and other parts, but here something not so. And while the Professor is studying another urine test at the same time fucking in the ass nurse, daughter-clone gives everyone the right and left, gives a soulful, even in the two guns in her fucking high. Poor dad...-Описание на русском:
Тема клонирования трудна и опасна своей неизученной природой, вот и профессор Шорк решил клонировать свою отъехавшую дочь. И вроде как всё на месте у клона - сиськи, писька, жопа, уши и прочие запчасти, но вот что-то типа не так. И пока профессор изучает очередной анализ мочи одновременно трахая раком медсестру, доча-клон даёт всем желающим направо и налево, даёт душевно, даже в два ствола ей в офигенный кайф. Бедный папа...-
Контейнер: AVI
Аудио кодек: MP3
Видео кодек: XviD
Cубтитры: отсутствуют
Качество видео: DVDRip
Аудио: MPEG Audio | 48.0 KHz | 2 ch | 128.0 Kbps
Видео: MPEG-4 Visual | 688х448 | 1763 Кbps | 25.0 fps | 0.229 bit/pixel

Media Info

Код:
Общее
Полное имя : Clonazione_[/*spam*/].avi
Формат : AVI
Формат/Информация : Audio Video Interleave
Размер файла : 1,67 Гбайт
Продолжительность : 2 ч. 5 м.
Общий поток : 1900 Кбит/сек
Библиотека кодирования : VirtualDub build 35491/release
Видео
Идентификатор : 0
Формат : MPEG-4 Visual
Профиль формата : Advanced [email protected]/*  */
Параметр BVOP формата : Нет
Параметр QPel формата : Нет
Параметр GMC формата : Без точки перехода
Параметр матрицы формата : Выборочная
Идентификатор кодека : XVID
Идентификатор кодека/Подсказка : XviD
Продолжительность : 2 ч. 5 м.
Битрейт : 1763 Кбит/сек
Ширина : 688 пикселей
Высота : 448 пикселей
Соотношение сторон : 3:2
Частота кадров : 25,000 кадров/сек
Цветовое пространство : YUV
Субдискретизация насыщенности : 4:2:0
Битовая глубина : 8 бит
Тип развёртки : Прогрессивная
Метод сжатия : С потерями
Бит/(Пиксели*Кадры) : 0.229
Размер потока : 1,55 Гбайт (93%)
Библиотека кодирования : XviD 64
Аудио
Идентификатор : 1
Формат : MPEG Audio
Версия формата : Version 1
Профиль формата : Layer 3
Режим : Joint stereo
Идентификатор кодека : 55
Идентификатор кодека/Подсказка : MP3
Продолжительность : 2 ч. 5 м.
Вид битрейта : Постоянный
Битрейт : 128 Кбит/сек
Каналы : 2 канала
Частота : 48,0 КГц
Метод сжатия : С потерями
Размер потока : 115 Мбайт (7%)
Выравнивание : Разделение по промежуткам
Продолжительность промежутка : 40 мс. (1,00 видеокадр)
Время предзагрузки промежутка : 500 мс.

Обложка

Скринлист

Скриншоты

                                               
 
Display posts from previous:    
Reply to topic

The time now is: Today 06:05

All times are GMT + 3 Hours



You cannot post new topics in this forum
You cannot reply to topics in this forum
You cannot edit your posts in this forum
You cannot delete your posts in this forum
You cannot vote in polls in this forum
You cannot attach files in this forum
You cannot download files in this forum