Today is a free download without charge Download

Павел Басманов | Эксперт по Windows 10 (2016) PCRec [H.264]

Reply to topic
 
Author
Message

XP1971 ®

Торрент-статистика

Post 16-Jan-2017 21:27

[Quote]

Павел Басманов | Эксперт по Windows 10- Автор (режиссер): Павел Басманов
Жанр: Windows 10
Описание:
Главная особенность данного курса в том, что курс охватывает всю необходимую информацию об этой операционной системе. В курсе описаны все новые функции и пошаговые настройки всех приложений. После просмотра вам останется только выполнить шаги, которые были показаны.
Продолжительность: 03:36:58
Качество видео: PCRec
Видео: AVC/H.264, 1280x720, 838kbps
Аудио: AAC, 44100Hz, stereo, 125kbps

Содержание курса:

Содержание:
  • Установка Windows 10 на чистый компьютер
  • Начало работы в Windows 10
  • Настраиваем новый "Пуск"
  • Стандартные приложения Windows 10
  • Новый экран блокировки
  • Новые фишки в приложениях Часы и Будильник
  • Виртуальные рабочие столы
  • Настройка компьютера в новой Панели управления
  • Новый браузер Microsoft Edge
  • Центр уведомлений в Windows 10
  • Отключаем слежение за компьютером на Windows 10
  • Настраиваем календарь
  • Работа с файлами и папками
  • Учетные записи пользователей
  • Резервное копирование и восстановление
Бонусы:
  • Переход с Windows 7 на Windows 10
  • Трансформация Windows 7 в MAC OS

MediaInfo:

Код:
General
Format                         : MPEG-4
Format profile                 : Base Media / Version 2
Codec ID                       : mp42
File size                      : 73.6 MiB
Duration                       : 5mn 51s
Overall bit rate mode          : Variable
Overall bit rate               : 1 757 Kbps
Encoded date                   : UTC 2015-10-03 08:21:25
Tagged date                    : UTC 2015-10-03 08:21:25
Video
ID                             : 1
Format                         : AVC
Format/Info                    : Advanced Video Codec
Format profile                 : [url=mailto:Baseline@L3.1]Baseline@L3.1[/url]
Format settings, CABAC         : No
Format settings, ReFrames      : 3 frames
Codec ID                       : avc1
Codec ID/Info                  : Advanced Video Coding
Duration                       : 5mn 51s
Bit rate                       : 1 628 Kbps
Width                          : 1 280 pixels
Height                         : 720 pixels
Display aspect ratio           : 16:9
Frame rate mode                : Constant
Frame rate                     : 30.000 fps
Standard                       : NTSC
Color space                    : YUV
Chroma subsampling             : 4:2:0
Bit depth                      : 8 bits
Scan type                      : Progressive
Bits/(Pixel*Frame)             : 0.059
Stream size                    : 68.2 MiB (93%)
Language                       : English
Encoded date                   : UTC 2015-10-03 08:21:25
Tagged date                    : UTC 2015-10-03 08:21:25
Color range                    : Limited
Audio
ID                             : 2
Format                         : AAC
Format/Info                    : Advanced Audio Codec
Format profile                 : LC
Codec ID                       : 40
Duration                       : 5mn 51s
Bit rate mode                  : Variable
Bit rate                       : 126 Kbps
Maximum bit rate               : 289 Kbps
Channel(s)                     : 2 channels
Channel positions              : Front: L R
Sampling rate                  : 44.1 KHz
Compression mode               : Lossy
Stream size                    : 5.27 MiB (7%)
Language                       : English
Encoded date                   : UTC 2015-10-03 08:21:25
Tagged date                    : UTC 2015-10-03 08:21:25
Скриншоты:
       
 
Display posts from previous:    
Reply to topic

The time now is: Today 07:05

All times are GMT + 3 Hours



You cannot post new topics in this forum
You cannot reply to topics in this forum
You cannot edit your posts in this forum
You cannot delete your posts in this forum
You cannot vote in polls in this forum
You cannot attach files in this forum
You cannot download files in this forum