Today is a free download without charge Download

Замужняя Женщина. Зов Страсти (русский перевод) / Married Woman: The Call Of Lust / 43 Ans Les Nuits D'une Femme Mariee (Gazzman / Marc Dorcel) [2015 г., Feature, Anal Sex, DP, DVDRip] (Rebecca More, Alexa Tomas, Honey Demon, Aida Sweet)[RUS]

Reply to topic
 
Author
Message

XP1971 ®

Торрент-статистика

Post 14-Jan-2017 01:12

[Quote]

-Замужняя Женщина. Зов Страсти
(русский перевод)

Married Woman: The Call Of Lust
43 Ans Les Nuits D'une Femme Mariee
-- Страна: France
Студия: Marc Dorcel
Режиссер: Gazzman
Год выпуска: 2015 г.
Жанр: Feature, Anal Sex, DP
Продолжительность: 01:43:37
Оригинальный аудиопоток: английский
Перевод: Профессиональный (одноголосый, закадровый)-В ролях: Rebecca More, Alexa Tomas, Honey Demon, Aida Sweet, Satin Bloom, Martina Gold, George Uhl, Juan Lucho-Оригинальное описание:
Come and discover how these gorgeous married women spend their daily lives and quench their insatiable thirst for orgasms. 40 year old Rebecca is married and has a great pair of breasts; she is about to discover new horizons of pleasure with her rich girlfriends. Having been in relationships for many years, these women start to collect virile lovers and passing stallions, thus embarking on incredible moments of debauchery and pleasure.-Описание на русском:
Разоблачив своего мужа в неверности, Ребекка решила взять свою судьбу в собственные руки и позволить себе управлять своими желаниями. Совместно с подругами она решает создать совершенно особый “клуб” для богатых замужних женщин с реальной целью соблазнения зрелых мужчин.-
Контейнер: MKV
Аудио кодек: AC3
Видео кодек: AVC
Cубтитры: отсутствуют
Качество видео: DVDRip
Аудио: Audio Coding 3 | 48.0 KHz | 2 ch | 192.0 Kbps
Видео: AVC | 704х390 | 1270 Кbps | 29.97 fps | 0.154 bit/pixel

Media Info

Код:
Общее
Уникальный идентификатор : 207074813642499762911121989100275994954 (0x9BC9288F0413017C9F075869F487914A)
Полное имя : Married Woman.The Call Of Lust_[/*spam*/].mkv
Формат : Matroska
Версия формата : Version 2
Размер файла : 1,08 Гбайт
Продолжительность : 1 ч. 43 м.
Общий поток : 1491 Кбит/сек
Дата кодирования : UTC 2016-11-25 12:38:05
Программа кодирования : mkvmerge v4.9.1 ('Ich will') сборка от Jul 11 2011 23:53:15
Библиотека кодирования : libebml v1.2.1 + libmatroska v1.1.1
Видео
Идентификатор : 1
Формат : AVC
Формат/Информация : Advanced Video Codec
Профиль формата : [email protected]/*  */
Параметр CABAC формата : Да
Параметр ReFrames формата : 5 кадров
Режим смешивания : Header stripping
Идентификатор кодека : V_MPEG4/ISO/AVC
Продолжительность : 1 ч. 43 м.
Битрейт : 1270 Кбит/сек
Ширина : 704 пикселя
Высота : 390 пикселей
Соотношение сторон : 16:9
Режим частоты кадров : Постоянный
Частота кадров : 29,970 кадров/сек
Цветовое пространство : YUV
Субдискретизация насыщенности : 4:2:0
Битовая глубина : 8 бит
Тип развёртки : Прогрессивная
Бит/(Пиксели*Кадры) : 0.154
Размер потока : 941 Мбайт (85%)
Библиотека кодирования : x264 core 148 r2579 73ae2d1
Настройки программы : cabac=1 / ref=5 / deblock=1:-1:-1 / analyse=0x3:0x133 / me=umh / subme=8 / psy=1 / psy_rd=1.00:0.15 / mixed_ref=1 / me_range=16 / chroma_me=1 / trellis=1 / 8x8dct=1 / cqm=0 / deadzone=21,11 / fast_pskip=0 / chroma_qp_offset=-3 / threads=6 / lookahead_threads=1 / sliced_threads=0 / nr=0 / decimate=1 / interlaced=0 / bluray_compat=0 / constrained_intra=0 / bframes=3 / b_pyramid=2 / b_adapt=2 / b_bias=0 / direct=3 / weightb=1 / open_gop=0 / weightp=2 / keyint=300 / keyint_min=29 / scenecut=40 / intra_refresh=0 / rc_lookahead=50 / rc=crf / mbtree=1 / crf=19.0 / qcomp=0.60 / qpmin=0 / qpmax=69 / qpstep=4 / vbv_maxrate=17500 / vbv_bufsize=17500 / crf_max=0.0 / nal_hrd=none / filler=0 / ip_ratio=1.40 / aq=1:1.00
Default : Да
Forced : Нет
Аудио
Идентификатор : 2
Формат : AC-3
Формат/Информация : Audio Coding 3
Расширение режима : CM (complete main)
Параметр Endianness формата : Big
Режим смешивания : Header stripping
Идентификатор кодека : A_AC3
Продолжительность : 1 ч. 43 м.
Вид битрейта : Постоянный
Битрейт : 192 Кбит/сек
Каналы : 2 канала
Расположение каналов : Front: L R
Частота : 48,0 КГц
Битовая глубина : 16 бит
Метод сжатия : С потерями
Размер потока : 142 Мбайт (13%)
Default : Да
Forced : Нет

Скринлист

Скриншоты

                                                           
 
Display posts from previous:    
Reply to topic

The time now is: Today 22:07

All times are GMT + 3 Hours



You cannot post new topics in this forum
You cannot reply to topics in this forum
You cannot edit your posts in this forum
You cannot delete your posts in this forum
You cannot vote in polls in this forum
You cannot attach files in this forum
You cannot download files in this forum