Today is a free download without charge Download

Как соблазнить умную девку? / Smart-Ass Nerdy Teeny Sesuction (SheIsNerdy / DirtyFlix) [2014 г., Hardcore, Teens, Glasses, SiteRip, 1080p] (Shakti)

Reply to topic
 
Author
Message

XP1971 ®

Торрент-статистика

Post 08-Jan-2017 23:02

[Quote]

-Как соблазнить умную девку?
Smart-Ass Nerdy Teeny Sesuction
- Режиссер: N/A
Страна: Russia
Год выпуска: 2014 г.
Студия: SheIsNerdy / DirtyFlix
Продолжительность: 00:22:53
Жанр: Hardcore, Teens, Glasses
Оригинальный аудиопоток: русский-В ролях:
Shakti-Описание:
Вредно ли читать книги в общественном месте? Бывает, что и полезно. Идёт себе пацанчик, орехи почёсывает на ходу, а тут девка с книжкой сидит жопой на холодном. Как так сидишь тут одна читаешь, айда ко мне домой, вместе почитаем. Девка смекалистой оказалась, поняла зачем зовут и что делать надо. Села на член уверенно и поскакала в далёкие литературные дали...-
Контейнер: MP4
Аудио кодек: AAC
Cубтитры: английские
Качество видео: SiteRip
Видео кодек: MPEG4 AVC
Стандарт разрешения: 1080p
Формат субтитров: hardsub (неотключаемые)
Аудио: Advanced Audio | 44.1 KHz | 2 ch | 111.0 Kbps
Видео: Adv. Video | 1920х1080 | 4960 Kbps | 25.0 fps | 0.096 bit/pixel

Media Info

Код:
Общее
Полное имя : Smart_ass_nerdy_teeny_seduction_[/*spam*/].mp4
Формат : MPEG-4
Профиль формата : Base Media
Идентификатор кодека : isom
Размер файла : 831 Мбайт
Продолжительность : 22 м.
Режим общего битрейта : Переменный
Общий поток : 5076 Кбит/сек
Программа кодирования : Lavf54.22.101
Видео
Идентификатор : 1
Формат : AVC
Формат/Информация : Advanced Video Codec
Профиль формата : [email protected]/*  */
Параметр CABAC формата : Да
Параметр ReFrames формата : 4 кадра
Идентификатор кодека : avc1
Идентификатор кодека/Информация : Advanced Video Coding
Продолжительность : 22 м.
Битрейт : 4960 Кбит/сек
Ширина : 1920 пикселей
Высота : 1080 пикселей
Соотношение сторон : 16:9
Режим частоты кадров : Постоянный
Частота кадров : 25,000 кадров/сек
Цветовое пространство : YUV
Субдискретизация насыщенности : 4:2:0
Битовая глубина : 8 бит
Тип развёртки : Прогрессивная
Бит/(Пиксели*Кадры) : 0.096
Размер потока : 812 Мбайт (98%)
Библиотека кодирования : x264 core 125
Настройки программы : cabac=1 / ref=3 / deblock=1:0:0 / analyse=0x3:0x113 / me=hex / subme=7 / psy=1 / psy_rd=1.00:0.00 / mixed_ref=1 / me_range=16 / chroma_me=1 / trellis=0 / 8x8dct=1 / cqm=0 / deadzone=21,11 / fast_pskip=1 / chroma_qp_offset=-2 / threads=16 / lookahead_threads=2 / sliced_threads=0 / nr=0 / decimate=1 / interlaced=0 / bluray_compat=0 / constrained_intra=0 / bframes=8 / b_pyramid=2 / b_adapt=1 / b_bias=0 / direct=1 / weightb=1 / open_gop=0 / weightp=2 / keyint=50 / keyint_min=5 / scenecut=40 / intra_refresh=0 / rc_lookahead=40 / rc=crf / mbtree=1 / crf=20.0 / qcomp=0.60 / qpmin=0 / qpmax=69 / qpstep=4 / ip_ratio=1.40 / aq=1:1.00
Язык : Russian
Аудио
Идентификатор : 2
Формат : AAC
Формат/Информация : Advanced Audio Codec
Профиль формата : LC
Идентификатор кодека : 40
Продолжительность : 22 м.
Вид битрейта : Переменный
Битрейт : 111 Кбит/сек
Максимальный битрейт : 128 Кбит/сек
Каналы : 2 канала
Расположение каналов : Front: L R
Частота : 44,1 КГц
Метод сжатия : С потерями
Размер потока : 18,1 Мбайт (2%)
Язык : Russian

Скринлист

Скриншоты

                           
 
Display posts from previous:    
Reply to topic

The time now is: Today 23:32

All times are GMT + 3 Hours



You cannot post new topics in this forum
You cannot reply to topics in this forum
You cannot edit your posts in this forum
You cannot delete your posts in this forum
You cannot vote in polls in this forum
You cannot attach files in this forum
You cannot download files in this forum