Today is a free download without charge Download

Кошмар перед Рождеством / The Nightmare Before Christmas (Генри Селик / Henry Selick) [1993, США, мультфильм, мюзикл, DVDScreener > DVD] [Телевизионная версия канала ТНТ] Dub (ТНТ)

Reply to topic
 
Author
Message

Omen ®

Longevity: 6 years 9 months

Posts: 181090

Торрент-статистика

Post 07-Jan-2017 01:00

[Quote]

Кошмар перед Рождеством / The Nightmare Before Christmas / Телевизионная версия канала ТНТ- Страна: США
Жанр: мультфильм, мюзикл
Год выпуска: 1993
Продолжительность: 01:10:31-Перевод: Профессиональный (дублированный) - Продюссерский центр ТраекТория по заказу ОАО ТНТ-Телесеть.
Cубтитры: нет-Режиссер: Генри Селик / Henry Selick
Роли дублируют: Алексей Кортнев, Гарик Сукачёв, Александр (Чача) Иванов, Николай Фоменко, Тутта Ларсен, музыканты рок-групп «Машина времени», «Агата Кристи».- -Описание: Рождество может быть спасено? Джеку Скеллингтону, королю тыкв Города Хеллоуин, стала скучна повседневная рутина с однообразными страшилками и криками, и он решил донести до каждого радость Рождества. Но его веселая миссия ставит под угрозу Санту и становится кошмаром для всех хороших мальчиков и девочек во всем мире.-Дополнительно на диске: Фильм о создании "Кошмар по-русски".-Семпл: http://sendfile.su/1296725-Тип релиза: DVDScreener
Контейнер: DVD-Video
Видео: 704x576 (4:3), 25.000 fps, MPEG-2 Video, ~4297 Kbps, 0.424 bits/pixel
Аудио: Русский, 48.0 KHz, AC3, 6 ch, 384 Kbps

DVDInfo

Title: Кошмар перед Рождеством ТНТSize: 3.40 Gb ( 3 566 006,00 KBytes ) - DVD-5Enabled regions: 1, 2, 3, 4, 5, 6, 7, 8
VTS_01 : Play Length: 01:10:31+00:00:12 Video: PAL 4:3 (704x576) VBR Audio: English, AC3, 3/2 (L,C,R,SL,SR)+LFE ch, 384 kbps, Delay 0 mSec
VTS_02 : Play Length: 00:28:46+00:01:49 Video: PAL 4:3 (720x576) VBR Audio: English (Dolby AC3, 2 ch)

MediaInfo

GeneralComplete name : \Кошмар перед Рождеством ТНТ\VIDEO_TS\VTS_01_1.VOBFormat : MPEG-PSFile size : 954 MiBDuration : 27 min 55 sOverall bit rate mode : VariableOverall bit rate : 4 776 kb/s
VideoID : 224 (0xE0)Format : MPEG VideoFormat version : Version 2Format profile : Main@MainFormat settings, BVOP : YesFormat settings, Matrix : DefaultFormat settings, GOP : M=3, N=12Format settings, picture structure : FrameDuration : 27 min 55 sBit rate mode : VariableBit rate : 4 297 kb/sMaximum bit rate : 9 579 kb/sWidth : 704 pixelsHeight : 576 pixelsDisplay aspect ratio : 4:3Frame rate : 25.000 FPSStandard : PALColor space : YUVChroma subsampling : 4:2:0Bit depth : 8 bitsScan type : InterlacedScan order : Top Field FirstCompression mode : LossyBits/(Pixel*Frame) : 0.424Time code of first frame : 00:00:00:00Time code source : Group of pictures headerGOP, Open/Closed : ClosedStream size : 858 MiB (90%)Color primaries : BT.601 PALTransfer characteristics : BT.470 System B, BT.470 System GMatrix coefficients : BT.601
AudioID : 189 (0xBD)-128 (0x80)Format : AC-3Format/Info : Audio Coding 3Mode extension : CM (complete main)Format settings, Endianness : BigMuxing mode : DVD-VideoDuration : 27 min 54 sBit rate mode : ConstantBit rate : 384 kb/sChannel(s) : 6 channelsChannel positions : Front: L C R, Side: L R, LFESampling rate : 48.0 kHzFrame rate : 31.250 FPS (1536 spf)Bit depth : 16 bitsCompression mode : LossyStream size : 76.7 MiB (8%)
Menu

Скриншоты меню диска

Other forum [Profile] [PM]
Display posts from previous:    
Reply to topic

The time now is: Today 13:11

All times are GMT + 3 Hours



You cannot post new topics in this forum
You cannot reply to topics in this forum
You cannot edit your posts in this forum
You cannot delete your posts in this forum
You cannot vote in polls in this forum
You cannot attach files in this forum
You cannot download files in this forum