Today is a free download without charge Download

Стальной гигант / Железный гигант / The Iron Giant (Брэд Бёрд / Brad Bird) [1999, США, Мультфильм, BDRip] AVO Кашкин + AVO Живов

Reply to topic
 
Author
Message

Omen ®

Longevity: 6 years 9 months

Posts: 181090

Торрент-статистика

Post 07-Jan-2017 01:00

[Quote]

Стальной гигант / Железный гигант / The Iron Giant / Signature Edition / Signature Edition
Страна: США
Жанр: Мультфильм
Продолжительность: 01:29:58
Год выпуска: 1999
Перевод: Авторский (одноголосый закадровый) Юрий Живов
Перевод 2: Авторский (одноголосый закадровый) Александр Кашкин (Первомайский)
Русские субтитры: на фрагменты отсутствующие в голосовом переводе
Режиссёр: Брэд Бёрд / Brad Bird
Роли озвучивали: Эли Мариентал, Вин Дизель, Дженнифер Энистон, Гарри Конник мл., Джеймс Гэммон, Клорис Личмен, Кристофер МакДональд, Джон Махони, М. Эммет Уолш, Джек Эйнджел
Описание: Жители тихой американской провинции становятся свидетелями ослепительной вспышки и падения огромного летающего объекта. Спустя несколько дней мальчуган по имени Хогарт Хьюз находит в окрестностях гигантского робота, прилетевшего на Землю из далекой космической галактики.
Несмотря на свой грозный вид, инопланетный гость оказывается добрейшим созданием. Между ним и отважным мальчишкой завязывается настоящая дружба. Но узнавшие о существовании робота правительство и военные решили уничтожить пришельца. Хогарт — единственный, кто может спасти стального гиганта…
Доп. информация: Дорожка с А. Кашкиным ремастерирована, синхронизирована и наложена ale_x2008 при помощи iZotope RX2, Sony Vegas и VirtualDubMod
За оцифрованную с VHS дорожку благодарим - buyanoff.vladimir

Семпл: https://yadi.sk/i/LmYpsc9137H9T9
Качество: BDRip (источник: HDCLUB / Blu-Ray Remux [Signature Edition] / 1080р)
Формат: AVI
Видео: 720x304 (2.37:1), 23.976 fps, XviD build 73 ~1699 kbps avg, 0.32 bit/pixel
Аудио: 48 kHz, AC3 Dolby Digital, 3/2 (L,C,R,l,r) + LFE ch, ~384 kbps avg (Живов)
Аудио 2: AC3 Dolby Digital, 48000Hz, 2/0 (L,R) ch (mono), 192.00 kbps avg (Кашкин)
Субтитры: отсутствуют

Подробные технические данные

Стальной гигант - The Iron Giant [by ale_x2008].aviFormat : AVIFormat/Info : Audio Video InterleaveFile size : 1.44 GiBDuration : 1 h 29 minOverall bit rate : 2 291 kb/sMovie name : Стальной гигант - The Iron Giant [by ale_x2008]Director : by ale_x2008Writing application : VirtualDubMod 1.5.10.2 (build 2540/release)Writing library : VirtualDubMod build 2540/releaseCopyright : Edich2Comment : /*spam*/
VideoID : 0Format : MPEG-4 VisualFormat profile : Advanced Simple@L5Format settings, BVOP : 2Format settings, QPel : NoFormat settings, GMC : No warppointsFormat settings, Matrix : CustomCodec ID : XVIDCodec ID/Hint : XviDDuration : 1 h 29 minBit rate : 1 701 kb/sWidth : 720 pixelsHeight : 304 pixelsDisplay aspect ratio : 2.35:1Frame rate : 23.976 (23976/1000) FPSColor space : YUVChroma subsampling : 4:2:0Bit depth : 8 bitsScan type : ProgressiveCompression mode : LossyBits/(Pixel*Frame) : 0.324Stream size : 1.07 GiB (74%)Writing library : XviD 73
Audio #1ID : 1Format : AC-3Format/Info : Audio Coding 3Mode extension : CM (complete main)Format settings, Endianness : BigCodec ID : 2000Duration : 1 h 29 minBit rate mode : ConstantBit rate : 384 kb/sChannel(s) : 6 channelsChannel positions : Front: L C R, Side: L R, LFESampling rate : 48.0 kHzFrame rate : 31.250 FPS (1536 spf)Compression mode : LossyStream size : 247 MiB (17%)Alignment : Split accross interleavesInterleave, duration : 42 ms (1.00 video frame)Interleave, preload duratio : 500 ms
Audio #2ID : 2Format : AC-3Format/Info : Audio Coding 3Mode extension : CM (complete main)Format settings, Endianness : BigCodec ID : 2000Duration : 1 h 29 minBit rate mode : ConstantBit rate : 192 kb/sChannel(s) : 2 channelsChannel positions : Front: L RSampling rate : 48.0 kHzFrame rate : 31.250 FPS (1536 spf)Compression mode : LossyStream size : 124 MiB (8%)Alignment : Split accross interleavesInterleave, duration : 42 ms (1.00 video frame)Interleave, preload duratio : 500 ms

Скриншоты


Other forum [Profile] [PM]
Display posts from previous:    
Reply to topic

The time now is: Today 13:11

All times are GMT + 3 Hours



You cannot post new topics in this forum
You cannot reply to topics in this forum
You cannot edit your posts in this forum
You cannot delete your posts in this forum
You cannot vote in polls in this forum
You cannot attach files in this forum
You cannot download files in this forum