Today is a free download without charge Download

Три мушкетера. Микки, Дональд, Гуфи / Mickey, Donald, Goofy: The Three Musketeers (Донован Кук / Donovan Cook) [2004, США, мультфильм, мелодрама, комедия, приключения, семейный, BDRip] Dub

Reply to topic
 
Author
Message

Omen ®

Longevity: 6 years 9 months

Posts: 181090

Торрент-статистика

Post 07-Jan-2017 01:00

[Quote]

Три мушкетера. Микки, Дональд, Гуфи / Mickey, Donald, Goofy: The Three Musketeers- Год выпуска: 2004
Страна: США
Жанр: мультфильм, мелодрама, комедия, приключения, семейный
Продолжительность: 01:07:41
Перевод: Профессиональный (полное дублирование)
Субтитры: нет-Режиссер: Донован Кук / Donovan Cook
Роли озвучивали: Уэйн Оллвэйн, Тони Ансельмо, Билл Фармер, Расси Тейлор, Тресс МакНилл, Джим Каммингс, Эйприл Уинчелл, Джефф Беннетт, Морис ЛаМарш, Роб Полсен
О фильме: Заветная мечта трех лучших друзей Микки, Дональда и Гуфи — стать мушкетерами. Их размеренная жизнь перевернулась вверх дном, когда ребята оказались вовлеченными в коварный заговор капитана королевских мушкетеров Пита и лейтенанта Кларабелля, которые решили избавиться от принцессы Минни — единственного препятствия на пути Пита к королевскому трону.
Возможно, Микки, Дональд и Гуфи и не выглядят героями, но они припасли пару сюрпризов для капитана Пита. Дружба и сплоченность — вот их главный козырь!-Релиз:
Автор: sociolog_melvas
Качество: BDRip (источник: -Azureus- / BD-Remux / 1080p)
Формат: AVI
Видео: 704x400 (1.76:1), 23,976 fps, XviD build 65 ~1906 kbps avg, 0.28 bit/pixel
Аудио: 48 kHz, AC3 Dolby Digital, 3/2 (L,C,R,l,r) + LFE ch, ~384.00 kbps avg
Размер: 1112.71 Mb (1/4 DVD-R)
Скачать: Семпл-

Кадры из фильма

-

Mi

Формат : AVI
Формат/Информация : Audio Video Interleave
Размер файла : 1,09 Гбайт
Продолжительность : 1 ч. 7 м.
Общий поток : 2300 Кбит/сек
Название фильма : Три мушкетера. Микки, Дональд, Гуфи / Mickey, Donald, Goofy: The Three Musketeers (2004) BDRip
Режиссёр : sociolog_melvas
Жанр : мультфильм, мелодрама
Программа кодирования : VirtualDubMod 1.5.10.2 (build 2540/release)
Правообладатель : HQCLUB
Примечание : 24.12.2016
Видео
Идентификатор : 0
Формат : MPEG-4 Visual
Профиль формата : Advanced Simple@L5
Параметр BVOP формата : 1
Параметр QPel формата : Нет
Параметр GMC формата : Без точки перехода
Параметр матрицы формата : Выборочная
Идентификатор кодека : XVID
Идентификатор кодека/Подсказка : XviD
Продолжительность : 1 ч. 7 м.
Битрейт : 1907 Кбит/сек
Ширина : 704 пикселя
Высота : 400 пикселей
Соотношение сторон : 16:9
Частота кадров : 23,976 кадра/сек
Цветовое пространство : YUV
Субдискретизация насыщенности : 4:2:0
Битовая глубина : 8 бит
Тип развёртки : Прогрессивная
Метод сжатия : С потерями
Бит/(Пиксели*Кадры) : 0.282
Размер потока : 922 Мбайт (83%)
Библиотека кодирования : XviD 65
Аудио
Идентификатор : 1
Формат : AC-3
Формат/Информация : Audio Coding 3
Расширение режима : CM (complete main)
Параметр Endianness формата : Big
Идентификатор кодека : 2000
Продолжительность : 1 ч. 7 м.
Вид битрейта : Постоянный
Битрейт : 384 Кбит/сек
Каналы : 6 каналов
Расположение каналов : Front: L C R, Side: L R, LFE
Частота : 48,0 КГц
Битовая глубина : 16 бит
Метод сжатия : С потерями
Размер потока : 186 Мбайт (17%)
Выравнивание : Разделение по промежуткам
Продолжительность промежутка : 42 мс. (1,00 видеокадр)
Время предзагрузки промежутка : 500 мс.
-
Other forum [Profile] [PM]
Display posts from previous:    
Reply to topic

The time now is: Today 18:01

All times are GMT + 3 Hours



You cannot post new topics in this forum
You cannot reply to topics in this forum
You cannot edit your posts in this forum
You cannot delete your posts in this forum
You cannot vote in polls in this forum
You cannot attach files in this forum
You cannot download files in this forum