Today is a free download without charge Download

3 счастливых поросенка / Les 3 p'tits cochons 2 (2016) BDRip [H.264/1080p]

Reply to topic
DL-List and Torrent activity
Size:  7.94 GB   |    Registered:  2 years 7 months   |    Completed:  9 times
Seeders:  28  [  0 KB/s  ]   Leechers:  15  [  0 KB/s  ]   Show peers in full details
 
 
 
 
Author
Message

Varius ®

Gender:

Longevity: 9 years 4 months

Posts: 2407

Location: Hell

Торрент-статистика

Post 03-Jan-2017 08:52

[Quote]

3 счастливых поросенка / Les 3 p'tits cochons 2 (2016) BDRip [H.264/1080p] - Производство: Канада
Жанр: Комедия, Мелодрама
Режиссер: Жан-Франсуа Пуле
Актеры: Пол Дусе, Гийом Леме-Тивьерж, Патрис Робитейлл, Софи Прегент, Изабель Рише, Максим Лепаж, Сяо Сунь, Катрин Бойли, Джулиан Кэйси, Тетчена Белланж
Описание:
Реми, Матьё и Кристиан — братья, чья гиперактивность доставляет массу неприятностей им самим, их ревнивым женам и подружкам. Всё только усложняется, когда Доминик, жена Реми, выставляет мужа за дверь и не прочь завести интрижку с его братом…

Возраст: 18+ (зрителям, достигшим 18 лет. запрещено для детей)
Рейтинг MPAA: R (лицам до 17 лет обязательно присутствие взрослого)
Дата мировой премьеры: 1 июля 2016
Дата российской премьеры: 29 декабря 2016, «Русский Репортаж»
Продолжительность: 01:43:20
Качество видео: BDRip
Перевод: Многоголосый закадровый, любительский
Озвучка / Автор перевода: Синема УС
Вид субтитров: Отсутствуют
Реклама: Присутствуют аудио и видео вставки рекламы
Видео: MPEG-4 AVC, 1920x800, 10.1 Мбит/с
Аудио: Русский AC3, 2 ch, 640 Кбит/с

Mediainfo:

General
Complete name : O:\Les.3.Ptits.Cochons.2.2016.P.BDRip.1O8Op.mkv
Format : Matroska
File size : 7.94 GiB
Duration : 1h 43mn
Overall bit rate : 11.0 Mbps
Encoded date : UTC 2017-01-02 13:59:02
Writing application : mkvmerge v8.3.0 ('Over the Horizon') 64bit
Writing library : libebml v1.3.1 + libmatroska v1.4.2
Video
ID : 1
Format : AVC
Format/Info : Advanced Video Codec
Format profile : [url=mailto:High@L4.1]High@L4.1[/url]
Format settings, CABAC : Yes
Format settings, ReFrames : 5 frames
Muxing mode : Container profile=Unknown@4.1
Codec ID : V_MPEG4/ISO/AVC
Duration : 1h 43mn
Bit rate : 10.1 Mbps
Width : 1 920 pixels
Height : 800 pixels
Display aspect ratio : 2.40:1
Frame rate : 23.976 fps
Standard : Component
Resolution : 8 bits
Colorimetry : 4:2:0
Scan type : Progressive
Bits/(Pixel*Frame) : 0.275
Stream size : 7.31 GiB (92%)
Color primaries : BT.709-5, BT.1361, IEC 61966-2-4, SMPTE RP177
Transfer characteristics : BT.709-5, BT.1361
Matrix coefficients : BT.709-5, BT.1361, IEC 61966-2-4 709, SMPTE RP177
Audio
ID : 2
Format : AC-3
Format/Info : Audio Coding 3
Codec ID : A_AC3
Duration : 1h 43mn
Bit rate mode : Constant
Bit rate : 640 Kbps
Channel(s) : 2 channels
Channel positions : L R
Sampling rate : 48.0 KHz
Stream size : 473 MiB (6%)
Скриншоты:
       
[darkos.club].t313663.torrent 
Torrent: Registered   [ 2017-01-03 08:52 ]

Download

21 KB

Воспроизвести онлайн

Status: checked
Completed: 9 times
Size: 7.94 GB, InfoHash (Google it!)
Score:  - (vote: 0)
Default: 0  Thank you
 

_________________

Создавая "Новую папку", не считайте себя Создателем - это право Вам дано Админом


Other forum [Profile] [PM]
Display posts from previous:    
Reply to topic

The time now is: Today 03:40

All times are GMT + 3 Hours



You cannot post new topics in this forum
You cannot reply to topics in this forum
You cannot edit your posts in this forum
You cannot delete your posts in this forum
You cannot vote in polls in this forum
You cannot attach files in this forum
You can download files in this forum