Today is a free download without charge Download

Супергерои / Bling (Ли Гён-хо / Lee Kyeong-ho, Ли Вон-джэ / Lee Won-jae) [2016, США, Корея Южная, Мультфильм, BDRip] Dub

Reply to topic
 
Author
Message

Omen ®

Longevity: 6 years 9 months

Posts: 181090

Торрент-статистика

Post 20-Dec-2016 01:00

[Quote]

Супергерои / Bling
Слоган: «Prepare to engage»
Страна: США, Корея Южная
Жанр: Мультфильм
Год выпуска: 2016
Продолжительность: 01:21:27
Перевод: Профессиональный (дублированный)
Оригинальная аудиодорожка: нет
Режиссер: Ли Гён-хо / Lee Kyeong-ho, Ли Вон-джэ / Lee Won-jae
В ролях: Тейлор Китч, Дженнет МакКарди, Джеймс Вудс, Карла Гуджино, Том Грин, Джон Хидер, Джейсон Мьюз, Джейсон Кравиц, Джим Брюэр, Алексис Лэнг
Описание: Когда на город готовится нападение величайшего в истории злодея, когда предложение руки и сердца закончилось грандиозным провалом, а кольцо для любимой девушки потеряно… Только команда Супергероев может спасти ситуацию! Лучшие друзья из парка аттракционов готовятся вступить в битву с реальным злодеем! И они сделают все, чтобы спасти город и помочь своему другу спасти любовь!
Сэмпл: http://multi-up.com/1131697
Качество видео: BDRip / BLING_REMUX_HDCLUB
Формат видео: AVI
Видео: 720x400 (1.80:1), 24.000 fps, XviD build 65 ~2105 kbps avg, 0.30 bit/pixel
Audio: 48 kHz, AC3 Dolby Digital, 3/2 (L,C,R,l,r) + LFE ch, ~384 kbps

MediaInfo

Format : AVI
Format/Info : Audio Video Interleave
File size : 1.42 GiB
Duration : 1h 21mn
Overall bit rate : 2 498 Kbps
Writing application : VirtualDubMod 1.5.10.3 | www.virtualdub-fr.org || (build 2550/release)
Writing library : VirtualDubMod build 2550/release
Video
ID : 0
Format : MPEG-4 Visual
Format profile : Advanced Simple@L5
Format settings, BVOP : 1
Format settings, QPel : No
Format settings, GMC : No warppoints
Format settings, Matrix : Custom
Codec ID : XVID
Codec ID/Hint : XviD
Duration : 1h 21mn
Bit rate : 2 105 Kbps
Width : 720 pixels
Height : 400 pixels
Display aspect ratio : 16:9
Frame rate : 24.000 fps
Color space : YUV
Chroma subsampling : 4:2:0
Bit depth : 8 bits
Scan type : Progressive
Compression mode : Lossy
Bits/(Pixel*Frame) : 0.305
Stream size : 1.20 GiB (84%)
Writing library : XviD 65
Audio
ID : 1
Format : AC-3
Format/Info : Audio Coding 3
Mode extension : CM (complete main)
Format settings, Endianness : Big
Codec ID : 2000
Duration : 1h 21mn
Bit rate mode : Constant
Bit rate : 384 Kbps
Channel(s) : 6 channels
Channel positions : Front: L C R, Side: L R, LFE
Sampling rate : 48.0 KHz
Frame rate : 31.250 fps (1536 spf)
Compression mode : Lossy
Stream size : 223 MiB (15%)
Alignment : Split accross interleaves
Interleave, duration : 42 ms (1.00 video frame)
Interleave, preload duratio : 500 ms

Скриншоты

Other forum [Profile] [PM]
Similar theme
Forum Topic Author Torrent Replies Last Post
./templates/default/images/folder_dl.gif Психология, Тренинг, Саморазвитие [Dorling Kindersley / Дорлинг Киндерсли] Cox T. / Кокс Т. - Superdate / Суперсвидание [2004, PDF, ENG] Omen
1 | 0

0 | 445

0

2016-09-20 01:00
Omen Latest
Display posts from previous:    
Reply to topic

The time now is: Today 09:59

All times are GMT + 3 Hours



You cannot post new topics in this forum
You cannot reply to topics in this forum
You cannot edit your posts in this forum
You cannot delete your posts in this forum
You cannot vote in polls in this forum
You cannot attach files in this forum
You cannot download files in this forum