Today is a free download without charge Download

Долина папоротников: Последний тропический лес / FernGully: The Last Rainforest (Билл Кройер / Bill Kroyer) [1992, США, мультфильм, BDRip-AVC] DVO (Гланц и Королёва)+ AVO (Гаврилов) + Subs (Rus, Eng)

Reply to topic
 
Author
Message

Omen ®

Longevity: 6 years 9 months

Posts: 181090

Торрент-статистика

Post 16-Dec-2016 01:00

[Quote]

Долина папоротников: Последний тропический лес / FernGully: The Last Rainforest
Страна: США
Жанр: мультфильм, фэнтези
Продолжительность: 01:15:52
Год выпуска: 1992
Перевод 1: Профессиональный (двухголосый закадровый) Гланц и Королёва
Перевод 2: Авторский (одноголосый закадровый) Гаврилов
Субтитры: русские, английские
Режиссёр: Билл Кройер / Bill Kroyer
Роли озвучивали: Тим Карри, Саманта Мэтис, Кристиан Слэйтер, Джонатан Уорд, Робин Уильямс, Грейс Забриски, Джеффри Блейк, Роберт Пасторелли, Чич Марин, Томми Чонг
Описание: Раньше мир лесов был намного больше. Но равновесие природы нарушено. Появился Злокс, злой дух насилия, он вырвался из центра Земли и стал уничтожать лес и деревья. И только воззвав к магическим силам природы, удалось заточить Злокса внутри дерева. Так начинается этот потрясающий мультфильм. Животным и мистическим маленьким существам, населяющим Долину папоротников грозит смертельная опасность, когда люди начинают уничтожать тропический лес своими бульдозерами. Они могут случайно освободить Злокса, заключенного в дереве, и тогда он снова будет нести смерть всему живому...

Качество: BDRip-AVC
Формат: MKV
Видео: AVC, 1152x624 (1.85:1), 23.976 fps, 4155 kbps avg, 0.241 bit/pixel
Аудио RUS: AC3, 48 kHz, 6 ch, 448 kbps | DVO
Аудио RUS: AC3, 48 kHz, 6 ch, 448 kbps | AVO
Аудио ENG: AC3, 48 kHz, 6 ch, 448 kbps | Оригинал

Подробные технические данные

GeneralUnique ID : 229382593682309345802532372142943173333 (0xAC917B07E81EE6929844270FC658FAD5)Complete name : D:\Видео\FernGully. The Last Rainforest (1992) BDRip-AVC.mkvFormat : MatroskaFormat version : Version 4 / Version 2File size : 2.91 GiBDuration : 1h 15mnOverall bit rate : 5 498 KbpsEncoded date : UTC 2016-12-15 16:00:04Writing application : mkvmerge v8.3.0 ('Over the Horizon') 64bitWriting library : libebml v1.3.1 + libmatroska v1.4.2DURATION : 01:15:38.868000000NUMBER_OF_FRAMES : 903NUMBER_OF_BYTES : 29778_STATISTICS_WRITING_APP : mkvmerge v8.3.0 ('Over the Horizon') 64bit_STATISTICS_WRITING_DATE_UTC : 2016-12-15 16:00:04_STATISTICS_TAGS : BPS DURATION NUMBER_OF_FRAMES NUMBER_OF_BYTES
VideoID : 1Format : AVCFormat/Info : Advanced Video CodecFormat profile : High@L4.1Format settings, CABAC : YesFormat settings, ReFrames : 13 framesCodec ID : V_MPEG4/ISO/AVCDuration : 1h 15mnBit rate : 4 155 KbpsWidth : 1 152 pixelsHeight : 624 pixelsDisplay aspect ratio : 1.85:1Frame rate mode : ConstantFrame rate : 23.976 fpsColor space : YUVChroma subsampling : 4:2:0Bit depth : 8 bitsScan type : ProgressiveBits/(Pixel*Frame) : 0.241Stream size : 2.14 GiB (74%)Writing library : x264 core 148 r2638 7599210Encoding settings : cabac=1 / ref=13 / deblock=1:-2:-2 / analyse=0x3:0x113 / me=umh / subme=10 / psy=1 / psy_rd=1.07:0.10 / mixed_ref=1 / me_range=32 / chroma_me=1 / trellis=2 / 8x8dct=1 / cqm=0 / deadzone=21,11 / fast_pskip=1 / chroma_qp_offset=-3 / threads=6 / lookahead_threads=1 / sliced_threads=0 / nr=0 / decimate=1 / interlaced=0 / bluray_compat=0 / constrained_intra=0 / bframes=12 / b_pyramid=2 / b_adapt=2 / b_bias=0 / direct=3 / weightb=1 / open_gop=0 / weightp=2 / keyint=240 / keyint_min=23 / scenecut=40 / intra_refresh=0 / rc_lookahead=60 / rc=2pass / mbtree=1 / bitrate=4155 / ratetol=1.0 / qcomp=0.60 / qpmin=0 / qpmax=69 / qpstep=4 / cplxblur=20.0 / qblur=0.5 / ip_ratio=1.40 / aq=2:1.00Language : EnglishDefault : YesForced : NoColor range : LimitedColor primaries : BT.709Transfer characteristics : BT.709Matrix coefficients : BT.709DURATION : 01:15:52.597000000NUMBER_OF_FRAMES : 109153NUMBER_OF_BYTES : 2362449199_STATISTICS_WRITING_APP : mkvmerge v8.3.0 ('Over the Horizon') 64bit_STATISTICS_WRITING_DATE_UTC : 2016-12-15 16:00:04_STATISTICS_TAGS : BPS DURATION NUMBER_OF_FRAMES NUMBER_OF_BYTES
Audio #1ID : 2Format : AC-3Format/Info : Audio Coding 3Mode extension : CM (complete main)Format settings, Endianness : BigCodec ID : A_AC3Duration : 1h 15mnBit rate mode : ConstantBit rate : 448 KbpsChannel(s) : 6 channelsChannel positions : Front: L C R, Side: L R, LFESampling rate : 48.0 KHzCompression mode : LossyStream size : 243 MiB (8%)Title : AC3, 5.1, 448 kbps | DVO Гланц и КоролёваLanguage : RussianDefault : YesForced : No
Audio #2ID : 3Format : AC-3Format/Info : Audio Coding 3Mode extension : CM (complete main)Format settings, Endianness : BigCodec ID : A_AC3Duration : 1h 15mnBit rate mode : ConstantBit rate : 448 KbpsChannel(s) : 6 channelsChannel positions : Front: L C R, Side: L R, LFESampling rate : 48.0 KHzCompression mode : LossyStream size : 243 MiB (8%)Title : AC3, 5.1, 448 kbps | AVO ГавриловLanguage : RussianDefault : NoForced : No
Audio #3ID : 4Format : AC-3Format/Info : Audio Coding 3Mode extension : CM (complete main)Format settings, Endianness : BigCodec ID : A_AC3Duration : 1h 15mnBit rate mode : ConstantBit rate : 448 KbpsChannel(s) : 6 channelsChannel positions : Front: L C R, Side: L R, LFESampling rate : 48.0 KHzCompression mode : LossyStream size : 243 MiB (8%)Title : AC3, 5.1, 448 kbps | OriginalLanguage : EnglishDefault : NoForced : No
Text #1ID : 5Format : UTF-8Codec ID : S_TEXT/UTF8Codec ID/Info : UTF-8 Plain TextLanguage : RussianDefault : NoForced : No
Text #2ID : 6Format : UTF-8Codec ID : S_TEXT/UTF8Codec ID/Info : UTF-8 Plain TextLanguage : EnglishDefault : NoForced : No
Menu00:00:00.000 : en:00:03:19.073 : en:00:04:49.831 : en:00:06:34.852 : en:00:09:12.677 : en:00:11:27.728 : en:00:15:18.751 : en:00:18:55.300 : en:00:23:27.823 : en:00:26:58.283 : en:00:30:53.434 : en:00:32:51.844 : en:00:35:45.268 : en:00:39:26.447 : en:00:42:58.659 : en:00:45:46.702 : en:00:49:01.355 : en:00:53:27.704 : en:00:57:58.391 : en:00:59:48.543 : en:01:03:26.052 : en:01:05:50.696 : en:01:08:09.043 : en:01:10:35.689 : en:

x264 log

...last pass...
x264.exe: --pass 2 --bitrate 4155 --preset slower --level 4.1 --ref 13 --aq-mode 2 --deblock -2:-2 --merange 32 --bframes 12 --psy-rd 1.07:0.10 --subme 10 --keyint 240 --colorprim bt709 --transfer bt709 --colormatrix bt709 --vbv-bufsize 0 --vbv-maxrate 0 --partitions p8x8,b8x8,i4x4,i8x8 --sar 1:1 --stats "G:\FernGully.log" --output "G:\FernGully.mkv" "F:\Temp\0814.avs"
avs [info]: 1152x624p 1:1 @ 2500000/104271 fps (cfr)
x264 [info]: using SAR=1/1
x264 [warning]: DPB size (13 frames, 36504 mbs) > level limit (11 frames, 32768 mbs)
x264 [info]: using cpu capabilities: MMX2 SSE2Fast SSSE3 SSE4.2 AVX
x264 [info]: profile High, level 4.1
x264 [info]: frame I:755 Avg QP:17.85 size:111267
x264 [info]: frame P:26443 Avg QP:21.44 size: 38256
x264 [info]: frame B:81955 Avg QP:23.48 size: 15458

Скриншоты

Other forum [Profile] [PM]
Display posts from previous:    
Reply to topic

The time now is: Today 19:26

All times are GMT + 3 Hours



You cannot post new topics in this forum
You cannot reply to topics in this forum
You cannot edit your posts in this forum
You cannot delete your posts in this forum
You cannot vote in polls in this forum
You cannot attach files in this forum
You cannot download files in this forum