Today is a free download without charge Download

Университет монстров в 3Д / Monsters University 3D (Дэн Скэнлон / Dan Scanlon) [2013, фэнтези, комедия, приключения, семейный, BDRip] [Локализованный видеоряд] Half OverUnder / Вертикальная анаморфная стереопара

Reply to topic
 
Author
Message

Omen ®

Longevity: 6 years 9 months

Posts: 181090

Торрент-статистика

Post 08-Dec-2016 01:01

[Quote]

Университет монстров / Monsters University- Год выпуска: 2013
Страна: США / Walt Disney Pictures
Жанр: фэнтези, комедия, приключения, семейный
Продолжительность: 01:44:17
Перевод: Профессиональный (дублированный)
Субтитры: русские, английские
Оригинальная аудиодорожка: английский-Режиссер: Дэн Скэнлон / Dan Scanlon-В ролях: Джон Гудман, Билли Кристал, Стив Бушеми, Хелен Миррен, Питер Сон, Джоэль Мюррей, Шон Хейс, Дэйв Фоли, Чарли Дэй, Альфред Молина.-Описание: Большой волосатый монстр Салли и маленький одноглазый Майк Возовски — лучшие друзья, которые уже много лет работают в паре в Корпорации монстров, где стали лучшими работниками. Казалось, что эти двое дружат с самого детства, но на самом деле это не так. Когда Майк был еще маленьким мальчиком, его настолько впечатлила работа монстров в Страшильном цехе, что он поставил себе цель — стать одним из таких монстров. После окончания школы он поступил в университет на факультет Страха. Именно здесь он и познакомился с Салли. Но отношения между ними не заладились, и между ними началась настоящая борьба за звание лучшего страшилы.-Формат 3D: Half OverUnder / Вертикальная анаморфная стереопара
Качество: BDRip (Killbrain)
Контейнер: MKV
Видео: 1920x1080 at 23.976 fps, x264@L4.1, 2 pass, ~7800 kbps avg
Аудио 1: Russian 48 kHz, AC3, 3/2 (L,C,R,l,r) + LFE ch, ~640.00 kbps avg | Дубляж BD EUR
Аудио 2: English 48 kHz, AC3, 3/2 (L,C,R,l,r) + LFE ch, ~640.00 kbps avg | Original
Субтитры: русские (полные), английские (полные), английские (полные sdh)

Инфо

x264 [info]: frame I:1549 Avg QP:15.67 size:274190
x264 [info]: frame P:40428 Avg QP:19.01 size: 81080
x264 [info]: frame B:108063 Avg QP:20.38 size: 22204-Формат : Matroska
Версия формата : Version 2
Размер файла : 6,62 Гбайт
Продолжительность : 1 ч. 44 м.
Общий поток : 9083 Кбит/сек
Название фильма : Monsters University 3D (2013) by Killbrain
Дата кодирования : UTC 2013-11-04 18:48:53
Программа кодирования : mkvmerge v5.8.0 ('No Sleep / Pillow') built on Sep 2 2012 15:37:04
Библиотека кодирования : libebml v1.2.3 + libmatroska v1.3.0
Видео
Идентификатор : 1
Формат : AVC
Формат/Информация : Advanced Video Codec
Профиль формата : High@L4.1
Параметр CABAC формата : Да
Параметр ReFrames формата : 4 кадра
Идентификатор кодека : V_MPEG4/ISO/AVC
Продолжительность : 1 ч. 44 м.
Битрейт : 7800 Кбит/сек
Ширина : 1920 пикселей
Высота : 1080 пикселей
Соотношение сторон : 16:9
Режим частоты кадров : Постоянный
Частота кадров : 23,976 (24000/1001) кадра/сек
Цветовое пространство : YUV
Субдискретизация насыщенности : 4:2:0
Битовая глубина : 8 бит
Тип развёртки : Прогрессивная
Бит/(Пиксели*Кадры) : 0.157
Размер потока : 5,55 Гбайт (84%)
Заголовок : Monsters University 3D (2013) [русский видеоряд]
Библиотека кодирования : x264 core 138 r2358 9e941d1
Настройки программы : cabac=1 / ref=4 / deblock=1:-2:-2 / analyse=0x3:0x113 / me=umh / subme=10 / psy=1 / psy_rd=1.00:0.40 / mixed_ref=1 / me_range=32 / chroma_me=1 / trellis=2 / 8x8dct=1 / cqm=0 / deadzone=21,11 / fast_pskip=0 / chroma_qp_offset=-4 / threads=3 / lookahead_threads=1 / sliced_threads=0 / nr=0 / decimate=0 / interlaced=0 / bluray_compat=0 / constrained_intra=0 / bframes=6 / b_pyramid=2 / b_adapt=2 / b_bias=0 / direct=3 / weightb=1 / open_gop=0 / weightp=2 / keyint=240 / keyint_min=24 / scenecut=40 / intra_refresh=0 / rc_lookahead=60 / rc=2pass / mbtree=0 / bitrate=7800 / ratetol=1.0 / qcomp=0.65 / qpmin=0 / qpmax=69 / qpstep=4 / cplxblur=20.0 / qblur=0.5 / vbv_maxrate=40000 / vbv_bufsize=30000 / nal_hrd=none / frame-packing=4 / ip_ratio=1.40 / pb_ratio=1.30 / aq=1:0.70
Язык : English
Default : Да
Forced : Нет
Аудио #1
Идентификатор : 2
Формат : AC-3
Формат/Информация : Audio Coding 3
Расширение режима : CM (complete main)
Параметр Endianness формата : Big
Идентификатор кодека : A_AC3
Продолжительность : 1 ч. 44 м.
Вид битрейта : Постоянный
Битрейт : 640 Кбит/сек
Каналы : 6 каналов
Расположение каналов : Front: L C R, Side: L R, LFE
Частота : 48,0 КГц
Частота кадров : 31,250 кадров/сек (1536 spf)
Метод сжатия : С потерями
Размер потока : 477 Мбайт (7%)
Заголовок : AC3 / 5.1 ch / 640 kbps / Русский дубляж, BD EUR
Язык : Russian
Default : Да
Forced : Нет
Аудио #2
Идентификатор : 3
Формат : AC-3
Формат/Информация : Audio Coding 3
Расширение режима : CM (complete main)
Параметр Endianness формата : Big
Идентификатор кодека : A_AC3
Продолжительность : 1 ч. 44 м.
Вид битрейта : Постоянный
Битрейт : 640 Кбит/сек
Каналы : 6 каналов
Расположение каналов : Front: L C R, Side: L R, LFE
Частота : 48,0 КГц
Частота кадров : 31,250 кадров/сек (1536 spf)
Метод сжатия : С потерями
Размер потока : 477 Мбайт (7%)
Заголовок : AC3 / 5.1 ch / 640 kbps / Английский original, BD EUR
Язык : English
Default : Нет
Forced : Нет
Текст #1
Идентификатор : 4
Формат : UTF-8
Идентификатор кодека : S_TEXT/UTF8
Идентификатор кодека/Информация : UTF-8 Plain Text
Заголовок : Full, BD EUR
Язык : Russian
Default : Нет
Forced : Нет
Текст #2
Идентификатор : 5
Формат : UTF-8
Идентификатор кодека : S_TEXT/UTF8
Идентификатор кодека/Информация : UTF-8 Plain Text
Заголовок : Full, BD EUR
Язык : English
Default : Нет
Forced : Нет
Текст #3
Идентификатор : 6
Формат : UTF-8
Идентификатор кодека : S_TEXT/UTF8
Идентификатор кодека/Информация : UTF-8 Plain Text
Заголовок : SDH, BD EUR
Язык : English
Default : Нет
Forced : Нет
Меню
00:00:00.000 : :Chapter 01
00:06:26.719 : :Chapter 02
00:07:06.884 : :Chapter 03
00:10:54.111 : :Chapter 04
00:12:19.947 : :Chapter 05
00:16:09.968 : :Chapter 06
00:18:15.635 : :Chapter 07
00:19:37.592 : :Chapter 08
00:21:06.848 : :Chapter 09
00:23:43.630 : :Chapter 10
00:29:22.719 : :Chapter 11
00:30:39.462 : :Chapter 12
00:33:38.099 : :Chapter 13
00:36:30.980 : :Chapter 14
00:38:19.421 : :Chapter 15
00:39:22.568 : :Chapter 16
00:45:13.335 : :Chapter 17
00:47:14.831 : :Chapter 18
00:51:08.148 : :Chapter 19
00:55:21.192 : :Chapter 20
00:57:30.321 : :Chapter 21
01:01:42.239 : :Chapter 22
01:04:37.289 : :Chapter 23
01:07:33.006 : :Chapter 24
01:14:11.321 : :Chapter 25
01:18:07.849 : :Chapter 26
01:19:25.718 : :Chapter 27
01:23:53.402 : :Chapter 28
01:24:38.656 : :Chapter 29
01:28:00.232 : :Chapter 30
01:32:51.356 : :Chapter 31
01:34:24.032 : :Chapter 32

Скриншоты

Other forum [Profile] [PM]
Similar theme
Forum Topic Author Torrent Replies Last Post
./templates/default/images/folder_dl.gif Обучающее видео Универсариум. Графы и комбинаторика [2014, Математика, Webrip, RUS] (видеокурс, 7 модулей из 8) Omen
1 | 0

0 | 466

0

2015-03-22 21:00
Omen Latest
Display posts from previous:    
Reply to topic

The time now is: Today 13:10

All times are GMT + 3 Hours



You cannot post new topics in this forum
You cannot reply to topics in this forum
You cannot edit your posts in this forum
You cannot delete your posts in this forum
You cannot vote in polls in this forum
You cannot attach files in this forum
You cannot download files in this forum