Today is a free download without charge Download

Ледниковый период: Столкновение неизбежно в 3Д / Ice Age: Collision Course 3D (М.Тёрмайер, Г.Т.Чу / M.Thurmeier, G.T.Chu) [2016, Мультфильм, Комедия, Приключения, Семейный, BDrip] Half OverUnder / Вертикальная анаморфная стереопара

Reply to topic
 
Author
Message

Omen ®

Longevity: 6 years 9 months

Posts: 181090

Торрент-статистика

Post 08-Dec-2016 01:01

[Quote]

-Ледниковый период: Столкновение неизбежно
Ice Age: Collision Course

«Маленький шаг для него. Большая проблема для всех»
- Год выпуска: 2016
Страна: США (20th Century Fox, Blue Sky Studios)
Жанр: Мультфильм, Фантастика, Комедия, Приключения, Семейный
Продолжительность: 01:34:35
Перевод: Профессиональный дублированный (лицензия)
Режиссеры: Майк Тёрмайер, Гален Т. Чу / Mike Thurmeier, Galen T. Chu-Роли озвучивали (дублировали):

Manny - Рэй Романо (Степан Старчиков)
Sid - Джон Легуизамо (Антон Комолов)
Diego - Дэнис Лири (Александр Груздев)
Ellie - Куин Латифа (Ольга Шелест)
Crash - Шонн Уильям Скотт (Андрей Бархударов)
Buck / Pythagorus Buck / Robo Buck - Саймон Пегг (Вадим Галыгин)
Shira - Дженнифер Лопез (Альбина Джанабаева)
Neil deBuck Weasel - Нил Тайсон
Shangri Llama - Джесси Тайлер Фергюсон (Сергей Смирнов)
Brooke - Джесси Джей (Мария Иващенко)
Peaches - Кеке Палмер (Вероника Саркисова)
-Описание: Отчаянная погоня за неуловимым желудем катапультирует Скрата прямо в космос, где он случайно запускает целую серию космических событий. Именно они изменят весь мир Ледникового периода и станут реальной угрозой для него. Чтобы спастись, Сид, Мэнни, Диего и остальные звери должны покинуть свои дома, отправиться в забавное и захватывающее приключение в экзотические новые земли и встретиться со множеством красочных новых персонажей.-Премьера: 19 июня 2016 (14 июля 2016)
Бюджет: $105 000 000
Кассовые сборы: $404 560 422

.

Знаете ли вы, что...

  • Перед премьерным показом компьютерно-анимационного фильма «Снупи и мелочь пузатая в кино» производства «Blue Sky Studios», который состоялся 6 ноября 2015 года, зрителям в кинотеатрах показали отрывок из будущего фильма «Ледниковый период: Столкновение неизбежно» под названием «Космическая скратастрофа». В этот же день зрителям был продемонстрирован постер к фильму. Что же касается показанного в кинотеатрах отрывка, три дня спустя он появился на официальной страничке «YouTube» компании «20th Century Fox».
  • Чётвертый проект «Blue Sky Studio» после фильмов «Ледниковый период» (Крис Уэдж и Карлос Салдана, 2002), «Эпик» (Крис Уэдж, 2013) и «Снупи и мелочь пузатая в кино» (Стив Мартино, 2015), музыку к которому написал не Джон Пауэлл.
  • Первый анимационный фильм в карьере Джесси Тайлера Фергюсона.
  • Последний фильм франшизы «Ледниковый период».
  • Второй фильм франшизы после фильма Криса Уэджа и Карлоса Салданы «Ледниковый период» (2002), музыку к которому написал не Джон Пауэлл.
  • Самый длинный фильм франшизы «Ледниковый период».
  • Появившись в предыдущем фильме франшизы в эпизодической роли, Бак снова становится одним из центральных персонажей.
  • Сюжетная линия Скрата является пародией на научно-фантастические фильмы «Чужой» (1979), «Прометей» (2012) и «Марсианин» (2015) Ридли Скотта, но в особенности — на фильм Альфонсо Куарона «Гравитация» (2013). Авторы использовали в трейлерах ту же музыку и намекнули на гибель одного из персонажей.
Качество: BDRip (by Ash61)
Контейнер: MKV
Формат 3D: Half OverUnder / Вертикальная анаморфная стереопара
Порядок ракурсов: левый ракурс первый-Видео: AVC / 1920х1080p / 23,976 fps / 11.1 Mbps
Аудио:
#1 - Русский / AC3 / 48 KHz / 5.1 ch / 640 Kbps (Дубляж - BD Eur)
#2 - Украинский / AC3 / 48 KHz / 5.1 ch / 448 Kbps (Дубляж - BD Eur)
#3 - Английский / AC3 / 48 KHz / 5.1 ch / 640 Kbps (Original)
Субтитры (SRT):
Вшитые (softsub):
#1 - Русские Форсированные (включены по умолчанию)
#2 - Русские Полные
#3 - Украинские Форсированные
#4 - Украинские Полные
#5 - English Full
Внешние (UTF-8):
#1 - Русские Форсированные (включены по умолчанию)
#2 - Украинские Форсированные

MediaInfo

General
Unique ID : 252845557547814199399725287362387824493 (0xBE3848768850C26F8238EBFE4470CF6D)
Complete name : E:\IceAge5(2016)3D-halfOU(Ash61)\IceAge5(2016)3D-halfOU(Ash61).mkv
Format : Matroska
Format version : Version 2
File size : 8.62 GiB
Duration : 1h 34mn
Overall bit rate : 13.1 Mbps
Movie name : Ледниковый период: Столкновение неизбежно / Ice Age: Collision Course (2016) в 3Д
Encoded date : UTC 2016-11-02 21:50:47
Writing application : mkvmerge v5.8.0 ('No Sleep / Pillow') built on Sep 2 2012 15:37:04
Writing library : libebml v1.2.3 + libmatroska v1.3.0
Video
ID : 1
Format : AVC
Format/Info : Advanced Video Codec
Format profile : High@L4.1
Format settings, CABAC : Yes
Format settings, ReFrames : 4 frames
Codec ID : V_MPEG4/ISO/AVC
Duration : 1h 34mn
Bit rate : 11.1 Mbps
Width : 1 920 pixels
Height : 1 080 pixels
Display aspect ratio : 16:9
Frame rate mode : Constant
Frame rate : 23.976 fps
Color space : YUV
Chroma subsampling : 4:2:0
Bit depth : 8 bits
Scan type : Progressive
Bits/(Pixel*Frame) : 0.223
Stream size : 7.31 GiB (85%)
Title : BDRip by Ash61
Writing library : x264 core 146 r2538 121396c
Encoding settings : cabac=1 / ref=4 / deblock=1:-3:-3 / analyse=0x3:0x113 / me=umh / subme=10 / psy=1 / psy_rd=1.00:0.00 / mixed_ref=1 / me_range=32 / chroma_me=1 / trellis=2 / 8x8dct=1 / cqm=0 / deadzone=21,11 / fast_pskip=1 / chroma_qp_offset=-2 / threads=12 / lookahead_threads=3 / sliced_threads=0 / nr=0 / decimate=1 / interlaced=0 / bluray_compat=0 / constrained_intra=0 / bframes=10 / b_pyramid=2 / b_adapt=2 / b_bias=0 / direct=3 / weightb=1 / open_gop=0 / weightp=2 / keyint=250 / keyint_min=23 / scenecut=40 / intra_refresh=0 / rc_lookahead=60 / rc=crf / mbtree=1 / crf=15.0 / qcomp=0.70 / qpmin=0 / qpmax=69 / qpstep=4 / vbv_maxrate=40000 / vbv_bufsize=30000 / crf_max=0.0 / nal_hrd=none / filler=0 / frame-packing=4 / ip_ratio=1.40 / aq=1:0.70
Language : English
Default : Yes
Forced : No
Audio #1
ID : 2
Format : AC-3
Format/Info : Audio Coding 3
Mode extension : CM (complete main)
Format settings, Endianness : Big
Codec ID : A_AC3
Duration : 1h 34mn
Bit rate mode : Constant
Bit rate : 640 Kbps
Channel(s) : 6 channels
Channel positions : Front: L C R, Side: L R, LFE
Sampling rate : 48.0 KHz
Bit depth : 16 bits
Compression mode : Lossy
Stream size : 433 MiB (5%)
Title : Дубляж - BD Eur
Language : Russian
Default : Yes
Forced : No
Audio #2
ID : 3
Format : AC-3
Format/Info : Audio Coding 3
Mode extension : CM (complete main)
Format settings, Endianness : Big
Codec ID : A_AC3
Duration : 1h 34mn
Bit rate mode : Constant
Bit rate : 448 Kbps
Channel(s) : 6 channels
Channel positions : Front: L C R, Side: L R, LFE
Sampling rate : 48.0 KHz
Bit depth : 16 bits
Compression mode : Lossy
Stream size : 303 MiB (3%)
Title : Дубляж - BD Eur
Language : Ukrainian
Default : No
Forced : No
Audio #3
ID : 4
Format : AC-3
Format/Info : Audio Coding 3
Mode extension : CM (complete main)
Format settings, Endianness : Big
Codec ID : A_AC3
Duration : 1h 34mn
Bit rate mode : Constant
Bit rate : 640 Kbps
Channel(s) : 6 channels
Channel positions : Front: L C R, Side: L R, LFE
Sampling rate : 48.0 KHz
Bit depth : 16 bits
Compression mode : Lossy
Stream size : 433 MiB (5%)
Title : Original
Language : English
Default : No
Forced : No
Text #1
ID : 5
Format : UTF-8
Codec ID : S_TEXT/UTF8
Codec ID/Info : UTF-8 Plain Text
Title : Форсированные
Language : Russian
Default : Yes
Forced : No
Text #2
ID : 6
Format : UTF-8
Codec ID : S_TEXT/UTF8
Codec ID/Info : UTF-8 Plain Text
Title : Полные
Language : Russian
Default : No
Forced : No
Text #3
ID : 7
Format : UTF-8
Codec ID : S_TEXT/UTF8
Codec ID/Info : UTF-8 Plain Text
Title : Форсированные
Language : Ukrainian
Default : No
Forced : No
Text #4
ID : 8
Format : UTF-8
Codec ID : S_TEXT/UTF8
Codec ID/Info : UTF-8 Plain Text
Title : Полные
Language : Ukrainian
Default : No
Forced : No
Text #5
ID : 9
Format : UTF-8
Codec ID : S_TEXT/UTF8
Codec ID/Info : UTF-8 Plain Text
Title : Full
Language : English
Default : No
Forced : No
Menu
00:00:00.000 : :1
00:03:09.104 : :2
00:05:24.365 : :3
00:09:06.086 : :4
00:13:22.301 : :5
00:18:05.750 : :6
00:20:50.582 : :7
00:23:10.305 : :8
00:27:29.897 : :9
00:30:15.980 : :10
00:32:54.346 : :11
00:36:13.588 : :12
00:39:33.454 : :13
00:42:58.701 : :14
00:47:35.018 : :15
00:51:11.735 : :16
00:55:50.764 : :17
01:01:09.456 : :18
01:05:06.402 : :19
01:09:39.300 : :20
01:14:36.889 : :21
01:17:41.530 : :22
01:21:43.064 : :23
01:24:46.497 : :24

Для оценки 3Д - Анимированные скрины




















3.11.2016. Релиз обновлён - русская и украинская дороги iTunes заменены на лицензии, добавлены украинские субтитры.
Желающие, скачайте заново торрент-файл.
Other forum [Profile] [PM]
Similar theme
Forum Topic Author Torrent Replies Last Post
./templates/default/images/folder_dl.gif Эротические игры The Last Weekend / Последние выходные [Demo] [RUS] (2016) (DEMO) Omen
1 | 0

2 | 4297

7

2016-09-10 15:34
Anonymous Latest
./templates/default/images/folder_dl.gif Новинки (HD|DVD|BD|WEB|TV|SAT|PDTV|-Rip) Звёздные войны: Последние джедаи / Star Wars: The Last Jedi (Райан Джонсон) [2017, фантастика, фэнтези, боевик, приключения, HDRip-AVC] DUB | iTunes Theseus
1 | 0

0 | 632

5

2018-03-13 13:41
Theseus Latest
Display posts from previous:    
Reply to topic

The time now is: Today 13:11

All times are GMT + 3 Hours



You cannot post new topics in this forum
You cannot reply to topics in this forum
You cannot edit your posts in this forum
You cannot delete your posts in this forum
You cannot vote in polls in this forum
You cannot attach files in this forum
You cannot download files in this forum