Сегодня идет свободное скачивание без начисления Download

Евгений Карташов | Студийная фотосъёмка с нуля + Бонусы (2016) PCRec [H.264/1080p]

Ответить на тему
 
Автор
Сообщение

Omen ®

Стаж: 4 года 7 месяцев

Сообщений: 190649

Торрент-статистика

Пост 05-Дек-2016 01:01

[Цитировать]

Евгений Карташов
Студийная фотосъёмка с нуля + Бонусы (2016)
- Автор (режиссер): Евгений Карташов
Жанр: Съемка фото
Описание:
Видеокурс «Студийная фотосъёмка с нуля» — полноценное обучение студийной фотосъемке, специально для тех, кто хочет изучить студийную фотосъемку на высоком уровне в простой и доступной форме. Евгений Карташов расскажет вам, как достичь хороших результатов при освоении съемки в студии.
Благодаря видеокурсу «Студийная фотосъёмка с нуля», вы будете легко ориентироваться во всем многообразии студийного оборудования, а также сможете легко отличать хорошую студию от плохой по наличии в ней различных инструментов для работы.

Бонусы:

16 уроков обработки студийных фотографий
Красивое боке своими руками
Как снимать снепшоты для модели
10 световых схем на примерах
Продолжительность: 07:10:35
Качество видео: PCRec
Видео: AVC/H.264, 1920x1080, ~1493 kb/s
Аудио: AAC, 2 ch, 126 kb/s, VBR

Mediainfo:

General
Complete name : 16 уроков обработки студийных фотографий\rs\video\1.mp4
Format : MPEG-4
Format profile : Base Media / Version 2
Codec ID : mp42 (isom/mp42)
File size : 123 MiB
Duration : 10 min
Overall bit rate mode : Variable
Overall bit rate : 1 622 kb/s
Video
ID : 1
Format : AVC
Format/Info : Advanced Video Codec
Format profile : Baseline@L4
Format settings, CABAC : No
Format settings, ReFrames : 3 frames
Codec ID : avc1
Codec ID/Info : Advanced Video Coding
Duration : 10 min
Bit rate : 1 493 kb/s
Width : 1 920 pixels
Height : 1 080 pixels
Display aspect ratio : 16:9
Frame rate mode : Constant
Frame rate : 30.000 FPS
Standard : NTSC
Color space : YUV
Chroma subsampling : 4:2:0
Bit depth : 8 bits
Scan type : Progressive
Bits/(Pixel*Frame) : 0.024
Stream size : 113 MiB (92%)
Language : English
Encoded date : UTC 2016-11-21 12:41:40
Tagged date : UTC 2016-11-21 12:41:40
Color range : Limited
Audio
ID : 2
Format : AAC
Format/Info : Advanced Audio Codec
Format profile : LC
Codec ID : 40
Duration : 10 min
Bit rate mode : Variable
Bit rate : 126 kb/s
Maximum bit rate : 440 kb/s
Channel(s) : 2 channels
Channel positions : Front: L R
Sampling rate : 44.1 kHz
Frame rate : 43.066 FPS (1024 spf)
Compression mode : Lossy
Stream size : 9.51 MiB (8%)
Language : English
Скриншоты:
       

Еще скриншоты:

       
Вне форума [Профиль] [ЛС]
Похожие темы
Форум Тема Автор Торрент Отв. Посл. сообщение
./templates/default/images/folder_dl.gif Фильмы 2011-2016 Майский дождь (Евгений Лаврентьев) [2012 г., Мелодрама, Комедия, DVDRip] kiryandr
1 | 0

0 | 763

24

2012-12-26 11:13
kiryandr Последнее
./templates/default/images/folder_dl.gif Обучающее видео Евгений Гилев | Программирование в 1С 8.3 — за 21 день! (2014) PCRec Omen
1 | 0

0 | 913

39

2015-02-01 22:10
Omen Последнее
./templates/default/images/folder_dl.gif Обучающее видео Евгений Попов | Настройка и оптимизация Windows 10 (2017) PCRec Omen
5 | 0

0 | 113

7

2017-06-20 06:20
Omen Последнее
./templates/default/images/folder_dl.gif Философия, Религия, Эзотерика, Публицистика Евгений Примаков | Конфиденциально. Ближний Восток на сцене и за кулисами (2016) [FB2] moralis
1 | 0

0 | 532

4

2016-03-13 13:26
moralis Последнее
./templates/default/images/folder_dl.gif Книги для IPhone, IPod, Apple Прошкин Евгений - Драйвер заката [Дмитрий Хазанович (ДД), 2016, Фантастика, 128 kbps], M4b VHS
1 | 0

0 | 573

3

2016-04-03 20:51
VHS Последнее
./templates/default/images/folder_dl.gif Фантастика, фэнтези, ужасы, мистика Власов Игорь - Запретный Мир 03, Лес [Колосов Евгений, 2016 г., 64 kbps, MP3] Omen
1 | 0

0 | 350

6

2016-09-24 01:00
Omen Последнее
./templates/default/images/folder_dl.gif Фантастика, фэнтези, ужасы, мистика Евгений Борисович Мисюрин | Пенсионер. История вторая. Свои и чужие. (2017) [FB2] }{@R0N
1 | 0

0 | 2602

6

2017-04-17 13:52
}{@R0N Последнее
Показать сообщения:    
Ответить на тему

Текущее время: Сегодня 15:08

Часовой пояс: GMT + 3



Вы не можете начинать темы
Вы не можете отвечать на сообщения
Вы не можете редактировать свои сообщения
Вы не можете удалять свои сообщения
Вы не можете голосовать в опросах
Вы не можете прикреплять файлы к сообщениям
Вы не можете скачивать файлы