Сегодня идет свободное скачивание без начисления Download

Евгений Карташов | Студийная фотосъёмка с нуля + Бонусы (2016) PCRec [H.264/1080p]

Ответить на тему
 
Автор
Сообщение

Omen ®

Стаж: 4 года 11 месяцев

Сообщений: 190621

Торрент-статистика

Пост 05-Дек-2016 01:01

[Цитировать]

Евгений Карташов
Студийная фотосъёмка с нуля + Бонусы (2016)
- Автор (режиссер): Евгений Карташов
Жанр: Съемка фото
Описание:
Видеокурс «Студийная фотосъёмка с нуля» — полноценное обучение студийной фотосъемке, специально для тех, кто хочет изучить студийную фотосъемку на высоком уровне в простой и доступной форме. Евгений Карташов расскажет вам, как достичь хороших результатов при освоении съемки в студии.
Благодаря видеокурсу «Студийная фотосъёмка с нуля», вы будете легко ориентироваться во всем многообразии студийного оборудования, а также сможете легко отличать хорошую студию от плохой по наличии в ней различных инструментов для работы.

Бонусы:

16 уроков обработки студийных фотографий
Красивое боке своими руками
Как снимать снепшоты для модели
10 световых схем на примерах
Продолжительность: 07:10:35
Качество видео: PCRec
Видео: AVC/H.264, 1920x1080, ~1493 kb/s
Аудио: AAC, 2 ch, 126 kb/s, VBR

Mediainfo:

General
Complete name : 16 уроков обработки студийных фотографий\rs\video\1.mp4
Format : MPEG-4
Format profile : Base Media / Version 2
Codec ID : mp42 (isom/mp42)
File size : 123 MiB
Duration : 10 min
Overall bit rate mode : Variable
Overall bit rate : 1 622 kb/s
Video
ID : 1
Format : AVC
Format/Info : Advanced Video Codec
Format profile : Baseline@L4
Format settings, CABAC : No
Format settings, ReFrames : 3 frames
Codec ID : avc1
Codec ID/Info : Advanced Video Coding
Duration : 10 min
Bit rate : 1 493 kb/s
Width : 1 920 pixels
Height : 1 080 pixels
Display aspect ratio : 16:9
Frame rate mode : Constant
Frame rate : 30.000 FPS
Standard : NTSC
Color space : YUV
Chroma subsampling : 4:2:0
Bit depth : 8 bits
Scan type : Progressive
Bits/(Pixel*Frame) : 0.024
Stream size : 113 MiB (92%)
Language : English
Encoded date : UTC 2016-11-21 12:41:40
Tagged date : UTC 2016-11-21 12:41:40
Color range : Limited
Audio
ID : 2
Format : AAC
Format/Info : Advanced Audio Codec
Format profile : LC
Codec ID : 40
Duration : 10 min
Bit rate mode : Variable
Bit rate : 126 kb/s
Maximum bit rate : 440 kb/s
Channel(s) : 2 channels
Channel positions : Front: L R
Sampling rate : 44.1 kHz
Frame rate : 43.066 FPS (1024 spf)
Compression mode : Lossy
Stream size : 9.51 MiB (8%)
Language : English
Скриншоты:
       

Еще скриншоты:

       
Вне форума [Профиль] [ЛС]
Похожие темы
Форум Тема Автор Торрент Отв. Посл. сообщение
./templates/default/images/folder_dl.gif Обучающее видео Евгений Коноплев | CCNA за 4 месяца - пошаговое руководство [2011] PCRec Omen
1 | 0

0 | 1462

12

2013-01-09 23:19
Omen Последнее
./templates/default/images/folder_dl.gif Обучающая и научно-популярная литература Евгений Грин | Секреты инфобизнеса [2013] [MP3] UndegraundMen
1 | 0

0 | 944

3

2013-08-30 17:00
UndegraundMen Последнее
./templates/default/images/folder_dl.gif Обучающее видео Сайтостроение для начинающих или как создать свой первый сайт (Евгений Лебедев) [2012 г., Обучающее видео, PCRec] Ruvest
1 | 0

0 | 899

17

2013-10-16 07:48
Ruvest Последнее
./templates/default/images/folder_dl.gif Обучающее видео Евгений Карташов | Секреты фотосъемки в обычной квартире + Бонус (2017) CamRip Omen
1 | 0

0 | 352

11

2016-03-09 06:59
Omen Последнее
./templates/default/images/folder_dl.gif Обучающее видео Евгений Попов | Настройка и оптимизация Windows 10 (2017) PCRec Omen
1 | 0

0 | 532

21

2016-03-09 18:12
Omen Последнее
./templates/default/images/folder_dl.gif Обучающая и научно-популярная литература Эйдельман Натан Яковлевич - Секретная аудиенция [Терновский Евгений, 2012 г., 96 kbps, MP3] Omen
1 | 0

0 | 372

1

2016-09-23 01:00
Omen Последнее
./templates/default/images/folder_dl.gif Фантастика, фэнтези, ужасы, мистика Власов Игорь - Запретный Мир 03, Лес [Колосов Евгений, 2016 г., 64 kbps, MP3] Omen
1 | 0

0 | 516

8

2016-09-24 01:00
Omen Последнее
./templates/default/images/folder_dl.gif Фантастика, фэнтези, ужасы, мистика Евгений Щепетнов | Тот, кто ходит сам по себе (2016) [FB2] }{@R0N
1 | 0

0 | 1030

4

2016-12-18 21:37
}{@R0N Последнее
./templates/default/images/folder_dl.gif Фантастика, фэнтези, ужасы, мистика Евгений Борисович Мисюрин | Пенсионер. История вторая. Свои и чужие. (2017) [FB2] }{@R0N
2 | 0

0 | 2804

9

2017-04-17 13:52
}{@R0N Последнее
./templates/default/images/folder_dl.gif Фантастика, фэнтези, ужасы, мистика Евгений Борисович Мисюрин | Пенсионер. История первая. Дом в глуши (2017) [FB2] }{@R0N
2 | 0

0 | 2532

9

2017-04-17 13:52
}{@R0N Последнее
Показать сообщения:    
Ответить на тему

Текущее время: Сегодня 12:59

Часовой пояс: GMT + 3



Вы не можете начинать темы
Вы не можете отвечать на сообщения
Вы не можете редактировать свои сообщения
Вы не можете удалять свои сообщения
Вы не можете голосовать в опросах
Вы не можете прикреплять файлы к сообщениям
Вы не можете скачивать файлы