Сегодня идет свободное скачивание без начисления Download

Евгений Карташов | Студийная фотосъёмка с нуля + Бонусы (2016) PCRec [H.264/1080p]

Ответить на тему
 
Автор
Сообщение

Omen ®

Стаж: 4 года 5 месяцев

Сообщений: 190802

Торрент-статистика

Пост 05-Дек-2016 01:01

[Цитировать]

Евгений Карташов
Студийная фотосъёмка с нуля + Бонусы (2016)
- Автор (режиссер): Евгений Карташов
Жанр: Съемка фото
Описание:
Видеокурс «Студийная фотосъёмка с нуля» — полноценное обучение студийной фотосъемке, специально для тех, кто хочет изучить студийную фотосъемку на высоком уровне в простой и доступной форме. Евгений Карташов расскажет вам, как достичь хороших результатов при освоении съемки в студии.
Благодаря видеокурсу «Студийная фотосъёмка с нуля», вы будете легко ориентироваться во всем многообразии студийного оборудования, а также сможете легко отличать хорошую студию от плохой по наличии в ней различных инструментов для работы.

Бонусы:

16 уроков обработки студийных фотографий
Красивое боке своими руками
Как снимать снепшоты для модели
10 световых схем на примерах
Продолжительность: 07:10:35
Качество видео: PCRec
Видео: AVC/H.264, 1920x1080, ~1493 kb/s
Аудио: AAC, 2 ch, 126 kb/s, VBR

Mediainfo:

General
Complete name : 16 уроков обработки студийных фотографий\rs\video\1.mp4
Format : MPEG-4
Format profile : Base Media / Version 2
Codec ID : mp42 (isom/mp42)
File size : 123 MiB
Duration : 10 min
Overall bit rate mode : Variable
Overall bit rate : 1 622 kb/s
Video
ID : 1
Format : AVC
Format/Info : Advanced Video Codec
Format profile : Baseline@L4
Format settings, CABAC : No
Format settings, ReFrames : 3 frames
Codec ID : avc1
Codec ID/Info : Advanced Video Coding
Duration : 10 min
Bit rate : 1 493 kb/s
Width : 1 920 pixels
Height : 1 080 pixels
Display aspect ratio : 16:9
Frame rate mode : Constant
Frame rate : 30.000 FPS
Standard : NTSC
Color space : YUV
Chroma subsampling : 4:2:0
Bit depth : 8 bits
Scan type : Progressive
Bits/(Pixel*Frame) : 0.024
Stream size : 113 MiB (92%)
Language : English
Encoded date : UTC 2016-11-21 12:41:40
Tagged date : UTC 2016-11-21 12:41:40
Color range : Limited
Audio
ID : 2
Format : AAC
Format/Info : Advanced Audio Codec
Format profile : LC
Codec ID : 40
Duration : 10 min
Bit rate mode : Variable
Bit rate : 126 kb/s
Maximum bit rate : 440 kb/s
Channel(s) : 2 channels
Channel positions : Front: L R
Sampling rate : 44.1 kHz
Frame rate : 43.066 FPS (1024 spf)
Compression mode : Lossy
Stream size : 9.51 MiB (8%)
Language : English
Скриншоты:
       

Еще скриншоты:

       
Вне форума [Профиль] [ЛС]
Похожие темы
Форум Тема Автор Торрент Отв. Посл. сообщение
./templates/default/images/folder_dl.gif Обучающее видео Видеоуроки Adobe Photoshop CS3-CS5 от Зинаиды Лукьяновой и Евгения Попова [2007-2015][SWF][Обновление 12.05.2015] Ruvest
1 | 0

12 | 13358

34

2015-12-30 14:58
uschakov.yura Последнее
./templates/default/images/folder_dl.gif Обучающее видео Евгений Гилёв - Вебинар по Конвертации данных 2.1 [2012] PCRec Omen
1 | 0

0 | 5199

64

2012-11-14 21:32
Omen Последнее
./templates/default/images/folder_dl.gif Обучающее видео [Евгений Карташов] Lightroom-чародей [2013, RUS] Omen
2 | 0

0 | 892

20

2013-05-06 13:08
Omen Последнее
./templates/default/images/folder_dl.gif Кулинария Евгений Свешников | Вариант Мак-Доннеля. Сицилианская защита. 2.f4 [2013] [DJVU] sashau
1 | 0

0 | 1517

19

2013-06-05 17:06
sashau Последнее
./templates/default/images/folder_dl.gif Обучающая и научно-популярная литература Евгений Грин | Секреты инфобизнеса [2013] [MP3] UndegraundMen
1 | 0

0 | 698

3

2013-08-30 17:00
UndegraundMen Последнее
./templates/default/images/folder_dl.gif Обучающее видео Сайтостроение для начинающих или как создать свой первый сайт (Евгений Лебедев) [2012 г., Обучающее видео, PCRec] Ruvest
1 | 0

0 | 717

15

2013-10-16 07:48
Ruvest Последнее
./templates/default/images/folder_dl.gif Обучающее видео Евгений Карташов | 5 экшенов для ретуши (2013) PCRec UndegraundMen
1 | 0

0 | 952

34

2013-10-16 11:00
UndegraundMen Последнее
./templates/default/images/folder_dl.gif Обучающее видео Евгений Карташов. Photoshop для фотографа 2013 [2013, Обучение обработки фотографий, RUS] (Видеоурок) Omen
1 | 0

0 | 2448

46

2013-12-28 11:06
Omen Последнее
./templates/default/images/folder_dl.gif Обучающее видео Евгений Воробьев | Основы студийной фотографии (2013) [WEB-DL] UndegraundMen
2 | 0

0 | 1339

23

2013-12-29 08:00
UndegraundMen Последнее
./templates/default/images/folder_dl.gif Обучающее видео Евгений Беседа | Профессиональный дизайн сайта за 7 дней (2013) [PCRec] Omen
1 | 0

0 | 2222

46

2014-02-15 13:03
Omen Последнее
Показать сообщения:    
Ответить на тему

Текущее время: Сегодня 19:01

Часовой пояс: GMT + 3



Вы не можете начинать темы
Вы не можете отвечать на сообщения
Вы не можете редактировать свои сообщения
Вы не можете удалять свои сообщения
Вы не можете голосовать в опросах
Вы не можете прикреплять файлы к сообщениям
Вы не можете скачивать файлы