Сегодня идет свободное скачивание без начисления Download

Keiko Matsui - Journey To The Heart (2016) FLAC (image + .cue), lossless <Smooth-Jazz/Pop Jazz Modern>

Ответить на тему
 
Автор
Сообщение

Theseus ®

Пол:

Стаж: 7 лет 5 месяцев

Сообщений: 1992

Торрент-статистика

Пост 23-Ноя-2016 14:37

[Цитировать]

-Keiko Matsui - Journey To The Heart -Страна: Japan
Жанр: Smooth-Jazz/Pop Jazz Modern
Год выпуска: 2016
Формат: FLAC (image + .cue)
Битрейт аудио: lossless
Страна-производитель диска: Russia
Издатель (лейбл): Time Blues
Продолжительность: 00:46:49
Трэклист:
01. Moving On [0:04:45.13]
02. Carnival [0:04:35.03]
03. The Edge Of Twilight [0:03:22.53]
04. Butterfly [0:04:44.09]
05. Casablanca [0:05:02.63]
06. Journey To The Heart [0:05:14.32]
07. Havana Nights [0:04:00.64]
08. New Beginning [0:04:54.31]
09. Two Harbors [0:05:17.55]
10. Blue Rose [0:04:49.65]

Лог создания рипа

Exact Audio Copy V1.1 from 23. June 2015
Отчёт EAC об извлечении, выполненном 6. сентября 2016, 21:52
Keiko Matsui / Journey To The Heart
Дисковод: Optiarc DVD RW AD-7700S Adapter: 1 ID: 2
Режим чтения : Достоверность
Использование точного потока : Да
Отключение кэша аудио : Да
Использование указателей C2 : Нет
Коррекция смещения при чтении : 48
Способность читать области Lead-in и Lead-out : Нет
Заполнение пропущенных сэмплов тишиной : Да
Удаление блоков с тишиной в начале и конце : Нет
При вычислениях CRC использовались нулевые сэмплы : Да
Интерфейс : Встроенный Win32-интерфейс для Win NT/2000
Выходной формат : Пользовательский кодировщик
Выбранный битрейт : 768 kBit/s
Качество : Высокий
Добавление ID3-тега : Нет
Утилита сжатия : C:Program FilesExact Audio CopyFLACFLAC.EXE
Дополнительные параметры : -6 -V -T "ARTIST=%artist%" -T "TITLE=%title%" -T "ALBUM=%albumtitle%" -T "DATE=%year%" -T "TRACKNUMBER=%tracknr%" -T "GENRE=%genre%" -T "COMMENT=%comment%" -T "BAND=%albuminterpret%" -T "ALBUMARTIST=%albuminterpret%" -T "COMPOSER=%composer%" %haslyrics%--tag-from-file=LYRICS="%lyricsfile%"%haslyrics% -T "DISCNUMBER=%cdnumber%" -T "TOTALDISCS=%totalcds%" -T "TOTALTRACKS=%numtracks%" %hascover%--picture="%coverfile%"%hascover% %source% -o %dest%
TOC извлечённого CD
Трек | Старт | Длительность | Начальный сектор | Конечный сектор
---------------------------------------------------------------------
1 | 0:00.00 | 4:45.13 | 0 | 21387
2 | 4:45.13 | 4:35.03 | 21388 | 42015
3 | 9:20.16 | 3:22.53 | 42016 | 57218
4 | 12:42.69 | 4:44.09 | 57219 | 78527
5 | 17:27.03 | 5:02.63 | 78528 | 101240
6 | 22:29.66 | 5:14.32 | 101241 | 124822
7 | 27:44.23 | 4:00.64 | 124823 | 142886
8 | 31:45.12 | 4:54.31 | 142887 | 164967
9 | 36:39.43 | 5:17.55 | 164968 | 188797
10 | 41:57.23 | 4:49.65 | 188798 | 210537
Характеристики диапазона извлечения и сообщения об ошибках
Выбранный диапазон
Имя файла C:UsersTITANIUMDesktopFausto Papetti - 28a e 8a RaccolteKeiko Matsui - Journey To The Heart.wav
Пиковый уровень 100.0 %
Скорость извлечения 4.7 X
Качество диапазона 100.0 %
CRC теста 1BF95A2D
CRC копии 1BF95A2D
Копирование... OK
Ошибок не произошло
Конец отчёта
---- CUETools DB Plugin V2.1.6
[CTDB TOCID: wQgn1Jfr0HXOREY8NnBNFs4y.J8-] found
Submit result: wQgn1Jfr0HXOREY8NnBNFs4y.J8- has been confirmed
Track | CTDB Status
1 | (7/7) Accurately ripped
2 | (7/7) Accurately ripped
3 | (7/7) Accurately ripped
4 | (7/7) Accurately ripped
5 | (7/7) Accurately ripped
6 | (7/7) Accurately ripped
7 | (7/7) Accurately ripped
8 | (7/7) Accurately ripped
9 | (7/7) Accurately ripped
10 | (7/7) Accurately ripped
==== Контрольная сумма отчёта CAD0AC331E3B9D6E5D0C2B714AE7343BAEE8FE7F59DB9C91D80D9157A714DEF8 ====

Лог проверки качества

-----------------------
DON'T MODIFY THIS FILE
-----------------------
PERFORMER: auCDtect Task Manager, ver. 1.5.1RC4 build 1.5.1.5
Copyright (c) 2008-2010 y-soft. All rights reserved
ANALYZER: auCDtect: CD records authenticity detector, version 0.8.2
Copyright (c) 2004 Oleg Berngardt. All rights reserved.
Copyright (c) 2004 Alexander Djourik. All rights reserved.
FILE: Keiko Matsui - Journey To The Heart.flac
Size: 312179806 Hash: BC1B44B0CB2D7C66A6B1214C7A1C362A Accuracy: -m0
Conclusion: CDDA 100%
Signature: A586C442DE7C06CE462B7753A5C525D5761964C7
- -

_________________
Вне форума [Профиль] [ЛС]
Показать сообщения:    
Ответить на тему

Текущее время: Сегодня 22:01

Часовой пояс: GMT + 3



Вы не можете начинать темы
Вы не можете отвечать на сообщения
Вы не можете редактировать свои сообщения
Вы не можете удалять свои сообщения
Вы не можете голосовать в опросах
Вы не можете прикреплять файлы к сообщениям
Вы не можете скачивать файлы