Today is a free download without charge Download

Лего. Фильм в 3Д / The Lego Movie 3D (Фил Лорд / Phil Lord, Кристофер Миллер / Christopher Miller) [2014, мультфильм, фэнтези, комедия, приключения, семейный, BDRip] Half SideBySide / Горизонтальная анаморфная стереопара

Reply to topic
 
Author
Message

Omen ®

Longevity: 6 years 9 months

Posts: 181090

Торрент-статистика

Post 22-Nov-2016 01:00

[Quote]

- Название: Лего. Фильм
Оригинальное название: The Lego Movie
Год выпуска: 2014
Страна: Австралия, США, Дания / Warner Bros. Pictures
Жанр: мультфильм, фэнтези, комедия, приключения, семейный
Продолжительность: 01:40:35
Перевод: Профессиональный (дублированный)
Субтитры: русские, украинские, английские
Оригинальная аудиодорожка: английский-Режиссер: Фил Лорд / Phil Lord, Кристофер Миллер / Christopher Miller-В ролях: Крис Прэтт, Уилл Феррелл, Элизабет Бэнкс, Уилл Арнетт, Лиам Нисон, Морган Фриман, Крэйг Берри, Элисон Бри, Дэвид Берроуз, Энтони Дэниелс, Чарли Дэй.-Описание: Вселенная Лего всегда была очень разной и многоплановой. В ней существовали разные лего-люди, возвышались разные строения в больших лего-городах, ездили быстрые лего-машины. И все эти миры существовали каждый отдельно. В каждом из них развивалась своя история. И лего-злодеи тоже всегда здесь были. Но с ними отлично умели справляться супергерои (конечно же, они тоже были из наборов лего). Но в какой-то момент в голову одному из злодеев пришла мысль, что весь лего-мир должен стать единым и принадлежать только ему! И лишь он один будет править всеми лего-подданными, как ему захочется. И, чтобы осущиствить свой коварный план, этот диктатор решил склеить все отдельные части лего-мира. Вот уж тогда точно никто никуда от него не денется! Но свободные жители не хотят идти в рабство к одному выскочке! Чтобы предотвратить беду, необходимо найти смельчаков, которые разрушат черные замыслы и даже смогут пожертвовать своей жизнью, чтобы спасти лего-народ. Вот одним из таких героев становится обычная лего-фигурка, которую все знали, как Эммета. Он всю свою игрушечную жизнь занимается строительством домов согласно инструкциям. Но теперь, в новом для себя образе героя, Эммету придется действовать в команде не по инструкции, а согласно своей интуиции и сообразительности.-Формат 3D: Half SideBySide / Горизонтальная анаморфная стереопара
Качество: BDRip (WiKi)
Контейнер: MKV
Видео: 1920x1080 at 23.976 fps, x264@L4.1, 2pass, ~10000 kbps avg
Аудио 1: Russian 48 kHz, AC3, 3/2 (L,C,R,l,r) + LFE ch, 448.00 kbps avg | Дубляж BD CEE
Аудио 2: Ukrainian 48 kHz, AC3, 3/2 (L,C,R,l,r) + LFE ch, 448.00 kbps avg | Дубляж BD CEE
Аудио 3: English 48 kHz, AC3, 3/2 (L,C,R,l,r) + LFE ch, 640.00 kbps avg | Original
Субтитры: русские (форсированные, полные), украинские (форсированные, полные), английские (полные, полные sdh)

Инфо

Формат : Matroska
Версия формата : Version 4 / Version 2
Размер файла : 8,10 Гбайт
Продолжительность : 1 ч. 40 м.
Общий поток : 11,5 Мбит/сек
Название фильма : The Lego Movie 2014 Seven
Дата кодирования : UTC 2016-09-10 11:35:53
Программа кодирования : mkvmerge v9.3.1 ('Mask Machine') 32bit
Библиотека кодирования : libebml v1.3.4 + libmatroska v1.4.5
Видео
Идентификатор : 1
Формат : AVC
Формат/Информация : Advanced Video Codec
Профиль формата : High@L4.1
Параметр CABAC формата : Да
Параметр ReFrames формата : 4 кадра
Идентификатор кодека : V_MPEG4/ISO/AVC
Продолжительность : 1 ч. 40 м.
Битрейт : 10000 Кбит/сек
Ширина : 1920 пикселей
Высота : 1080 пикселей
Соотношение сторон : 16:9
Режим частоты кадров : Постоянный
Частота кадров : 23,976 кадра/сек
Цветовое пространство : YUV
Субдискретизация насыщенности : 4:2:0
Битовая глубина : 8 бит
Тип развёртки : Прогрессивная
Бит/(Пиксели*Кадры) : 0.201
Размер потока : 7,02 Гбайт (87%)
Заголовок : WiKi
Библиотека кодирования : x264 core 129 r2230 1cffe9f
Настройки программы : cabac=1 / ref=4 / deblock=1:-1:-1 / analyse=0x3:0x133 / me=umh / subme=11 / psy=1 / psy_rd=0.60:0.00 / mixed_ref=1 / me_range=64 / chroma_me=1 / trellis=2 / 8x8dct=1 / cqm=0 / deadzone=21,11 / fast_pskip=0 / chroma_qp_offset=-2 / threads=12 / lookahead_threads=2 / sliced_threads=0 / nr=0 / decimate=1 / interlaced=0 / bluray_compat=0 / constrained_intra=0 / bframes=10 / b_pyramid=2 / b_adapt=2 / b_bias=0 / direct=3 / weightb=1 / open_gop=0 / weightp=2 / keyint=250 / keyint_min=23 / scenecut=40 / intra_refresh=0 / rc_lookahead=60 / rc=2pass / mbtree=0 / bitrate=10000 / ratetol=1.0 / qcomp=0.70 / qpmin=0 / qpmax=69 / qpstep=4 / cplxblur=20.0 / qblur=0.5 / vbv_maxrate=40000 / vbv_bufsize=30000 / nal_hrd=none / ip_ratio=1.40 / pb_ratio=1.30 / aq=1:0.80
Язык : English
Default : Да
Forced : Нет
Аудио #1
Идентификатор : 2
Формат : AC-3
Формат/Информация : Audio Coding 3
Расширение режима : CM (complete main)
Параметр Endianness формата : Big
Идентификатор кодека : A_AC3
Продолжительность : 1 ч. 40 м.
Вид битрейта : Постоянный
Битрейт : 448 Кбит/сек
Каналы : 6 каналов
Расположение каналов : Front: L C R, Side: L R, LFE
Частота : 48,0 КГц
Частота кадров : 31,250 кадров/сек (1536 spf)
Метод сжатия : С потерями
Размер потока : 322 Мбайт (4%)
Заголовок : Dub BD CEE
Язык : Russian
Default : Да
Forced : Нет
Аудио #2
Идентификатор : 3
Формат : AC-3
Формат/Информация : Audio Coding 3
Расширение режима : CM (complete main)
Параметр Endianness формата : Big
Идентификатор кодека : A_AC3
Продолжительность : 1 ч. 40 м.
Вид битрейта : Постоянный
Битрейт : 448 Кбит/сек
Каналы : 6 каналов
Расположение каналов : Front: L C R, Side: L R, LFE
Частота : 48,0 КГц
Частота кадров : 31,250 кадров/сек (1536 spf)
Метод сжатия : С потерями
Размер потока : 322 Мбайт (4%)
Заголовок : Dub BD CEE
Язык : Ukrainian
Default : Нет
Forced : Нет
Аудио #3
Идентификатор : 4
Формат : AC-3
Формат/Информация : Audio Coding 3
Расширение режима : CM (complete main)
Параметр Endianness формата : Big
Идентификатор кодека : A_AC3
Продолжительность : 1 ч. 40 м.
Вид битрейта : Постоянный
Битрейт : 640 Кбит/сек
Каналы : 6 каналов
Расположение каналов : Front: L C R, Side: L R, LFE
Частота : 48,0 КГц
Частота кадров : 31,250 кадров/сек (1536 spf)
Метод сжатия : С потерями
Размер потока : 460 Мбайт (6%)
Заголовок : Original
Язык : English
Default : Нет
Forced : Нет
Текст #1
Идентификатор : 5
Формат : UTF-8
Идентификатор кодека : S_TEXT/UTF8
Идентификатор кодека/Информация : UTF-8 Plain Text
Продолжительность : 1 ч. 38 м.
Битрейт : 1 бит/сек
Count of elements : 35
Размер потока : 1,02 Кбайт (0%)
Заголовок : Forced
Язык : Russian
Default : Да
Forced : Нет
Текст #2
Идентификатор : 6
Формат : UTF-8
Идентификатор кодека : S_TEXT/UTF8
Идентификатор кодека/Информация : UTF-8 Plain Text
Продолжительность : 1 ч. 39 м.
Битрейт : 102 бит/сек
Count of elements : 1928
Размер потока : 75,2 Кбайт (0%)
Заголовок : Full
Язык : Russian
Default : Нет
Forced : Нет
Текст #3
Идентификатор : 7
Формат : UTF-8
Идентификатор кодека : S_TEXT/UTF8
Идентификатор кодека/Информация : UTF-8 Plain Text
Продолжительность : 1 ч. 38 м.
Битрейт : 1 бит/сек
Count of elements : 36
Размер потока : 1,02 Кбайт (0%)
Заголовок : Forced
Язык : Ukrainian
Default : Нет
Forced : Нет
Текст #4
Идентификатор : 8
Формат : UTF-8
Идентификатор кодека : S_TEXT/UTF8
Идентификатор кодека/Информация : UTF-8 Plain Text
Продолжительность : 1 ч. 39 м.
Битрейт : 119 бит/сек
Count of elements : 2010
Размер потока : 87,6 Кбайт (0%)
Заголовок : Full
Язык : Ukrainian
Default : Нет
Forced : Нет
Текст #5
Идентификатор : 9
Формат : UTF-8
Идентификатор кодека : S_TEXT/UTF8
Идентификатор кодека/Информация : UTF-8 Plain Text
Продолжительность : 1 ч. 38 м.
Битрейт : 83 бит/сек
Count of elements : 1979
Размер потока : 59,9 Кбайт (0%)
Заголовок : Full
Язык : English
Default : Нет
Forced : Нет
Текст #6
Идентификатор : 10
Формат : UTF-8
Идентификатор кодека : S_TEXT/UTF8
Идентификатор кодека/Информация : UTF-8 Plain Text
Продолжительность : 1 ч. 39 м.
Битрейт : 89 бит/сек
Count of elements : 2154
Размер потока : 65,2 Кбайт (0%)
Заголовок : Full SDH
Язык : English
Default : Нет
Forced : Нет
Текст #7
Идентификатор : 11
Формат : UTF-8
Идентификатор кодека : S_TEXT/UTF8
Идентификатор кодека/Информация : UTF-8 Plain Text
Продолжительность : 1 ч. 39 м.
Битрейт : 108 бит/сек
Count of elements : 2154
Размер потока : 79,4 Кбайт (0%)
Заголовок : Full SDH Colored
Язык : English
Default : Нет
Forced : Нет
Меню
00:00:00.000 : en:00:00:00.000
00:09:44.041 : en:00:09:44.041
00:18:18.388 : en:00:18:18.388
00:29:50.747 : en:00:29:50.747
00:38:48.034 : en:00:38:48.034
00:48:45.047 : en:00:48:45.047
00:57:49.424 : en:00:57:49.424
01:06:05.252 : en:01:06:05.252
01:16:24.204 : en:01:16:24.204
01:25:56.151 : en:01:25:56.151
01:32:57.321 : en:01:32:57.321

Скриншоты

Other forum [Profile] [PM]
Display posts from previous:    
Reply to topic

The time now is: Today 14:47

All times are GMT + 3 Hours



You cannot post new topics in this forum
You cannot reply to topics in this forum
You cannot edit your posts in this forum
You cannot delete your posts in this forum
You cannot vote in polls in this forum
You cannot attach files in this forum
You cannot download files in this forum