Today is a free download without charge Download

Без Предела 1 / No Limits 1 (русский перевод) (Nacho Vidal / Sineplex) [2002 г., DP, Anal Sex, Gonzo, DVDRip] (Belladonna, Alexa May as Alexandria, Electra Angel, Natalya, Ann Kiray as Anjoy, Nacho Vidal, Juliano Ferraz) [RUS]

Reply to topic
 
Author
Message

XP1971 ®

Торрент-статистика

Post 09-Nov-2016 11:35

[Quote]

-Без Предела 1 / No Limits 1-- Страна: USA
Студия: Sineplex
Год выпуска: 2002 г.
Режиссер: Nacho Vidal
Жанр: DP, Anal Sex, Gonzo
Оригинальный аудиопоток: английский
Продолжительность: 02:11:34 + 00:11:57
Перевод: Профессиональный (одноголосый, закадровый)-В ролях:
Belladonna, Alexa May as Alexandria, Electra Angel,
Natalya, Ann Kiray as Anjoy, Nacho Vidal, Juliano Ferraz-Оригинальное описание:
Nacho Vidal takes these lusty young ladies to new sexual peaks and beyond. Furious hardcore action will have you begging for more and the girls begging for mercy! This is aggressive sex at its best! So enjoy some of the greatest fucking scenes and check out Bella Donna's acrobatic body.-Описание на русском:
Начо Видал поднимает этих юных похотливых барышень к новым сексуальным вершинам. Жесткое сексуальное действие заставит вас желать большего, а девушек - молить о пощаде! Это агрессивный секс в лучшем виде! Так что наслаждайтесь несколькими потрясающими секс-сценами и акробатическим телом шлюшки Белладонны. Одна тёлочка решила подмыться в бассейне, одев спасательный круг на пузо. Так её и драли, с одетым надувным кругом. Другая своё доброе утро начала с чистки зубного состава - отодрали в рот вместе с зубной пастой. А у третьей праздник на душе с утра - поздравили её свечкой в жопу и двойным проникновением. Только хардкор, только позитив! Дарите женщинам улыбки.-
Контейнер: MKV
Аудио кодек: AC3
Видео кодек: AVC
Cубтитры: отсутствуют
Качество видео: DVDRip
Аудио: Audio Coding 3 | 48.0 KHz | 2 ch | 192.0 Kbps
Видео: AVC | 720х544 | 2000 Кbps | 29.97 fps | 0.170 bit/pixel

Media Info

Main scene

Общее
Уникальный идентификатор : 175068039947272603973019715755371237420 (0x83B4E0C77D3ADF118D4B0C57A555902C)
Полное имя : No_Limits_[/*spam*/]\No Limits 1.mkv
Формат : Matroska
Версия формата : Version 2
Размер файла : 2,25 Гбайт
Продолжительность : 2 ч. 11 м.
Общий поток : 2447 Кбит/сек
Дата кодирования : UTC 2015-10-13 09:16:31
Программа кодирования : mkvmerge v4.9.1 ('Ich will') сборка от Jul 11 2011 23:53:15
Библиотека кодирования : libebml v1.2.1 + libmatroska v1.1.1
Видео
Идентификатор : 1
Формат : AVC
Формат/Информация : Advanced Video Codec
Профиль формата : [email protected]/* */
Параметр CABAC формата : Да
Параметр ReFrames формата : 4 кадра
Режим смешивания : Header stripping
Идентификатор кодека : V_MPEG4/ISO/AVC
Продолжительность : 2 ч. 11 м.
Битрейт : 2000 Кбит/сек
Ширина : 720 пикселей
Высота : 544 пикселя
Соотношение сторон : 4:3
Режим частоты кадров : Постоянный
Частота кадров : 29,970 кадров/сек
Цветовое пространство : YUV
Субдискретизация насыщенности : 4:2:0
Битовая глубина : 8 бит
Тип развёртки : Прогрессивная
Бит/(Пиксели*Кадры) : 0.170
Размер потока : 1,79 Гбайт (80%)
Библиотека кодирования : x264 core 112
Настройки программы : cabac=1 / ref=3 / deblock=1:0:0 / analyse=0x3:0x113 / me=hex / subme=7 / psy=1 / psy_rd=1.00:0.00 / mixed_ref=1 / me_range=16 / chroma_me=1 / trellis=1 / 8x8dct=1 / cqm=0 / deadzone=21,11 / fast_pskip=1 / chroma_qp_offset=-2 / threads=6 / sliced_threads=0 / nr=0 / decimate=1 / interlaced=0 / constrained_intra=0 / bframes=3 / b_pyramid=2 / b_adapt=1 / b_bias=0 / direct=1 / weightb=1 / open_gop=0 / weightp=2 / keyint=300 / keyint_min=29 / scenecut=40 / intra_refresh=0 / rc_lookahead=40 / rc=abr / mbtree=1 / bitrate=2000 / ratetol=1.0 / qcomp=0.60 / qpmin=3 / qpmax=51 / qpstep=4 / ip_ratio=1.40 / aq=1:1.00
Язык : English
Default : Да
Forced : Нет
Цветовой диапазон : Limited
Основные цвета : BT.601 NTSC
Характеристики трансфера : BT.709
Коэффициенты матрицы : BT.601
Аудио
Идентификатор : 2
Формат : AC-3
Формат/Информация : Audio Coding 3
Расширение режима : CM (complete main)
Параметр Endianness формата : Big
Режим смешивания : Header stripping
Идентификатор кодека : A_AC3
Продолжительность : 2 ч. 11 м.
Вид битрейта : Постоянный
Битрейт : 192 Кбит/сек
Каналы : 2 канала
Расположение каналов : Front: L R
Частота : 48,0 КГц
Битовая глубина : 16 бит
Метод сжатия : С потерями
Размер потока : 181 Мбайт (8%)
Язык : Russian
Default : Да
Forced : Да

Bonus scene

Код:
Общее
Уникальный идентификатор : 199707681930728274540296026507262549230 (0x963E4CEBF59D07DE0E55AA7E7FABDCEE)
Полное имя : No Limits 1_Bonus Scene.mkv
Формат : Matroska
Версия формата : Version 2
Размер файла : 192 Мбайт
Продолжительность : 11 м.
Общий поток : 2241 Кбит/сек
Программа кодирования : HandBrake 0.9.5
Библиотека кодирования : libmkv 0.6.4.1
Видео
Идентификатор : 1
Формат : AVC
Формат/Информация : Advanced Video Codec
Профиль формата : [email protected]/*  */
Параметр CABAC формата : Да
Параметр ReFrames формата : 4 кадра
Идентификатор кодека : V_MPEG4/ISO/AVC
Продолжительность : 11 м.
Битрейт : 2000 Кбит/сек
Ширина : 720 пикселей
Высота : 544 пикселя
Соотношение сторон : 4:3
Режим частоты кадров : Постоянный
Частота кадров : 29,970 кадров/сек
Цветовое пространство : YUV
Субдискретизация насыщенности : 4:2:0
Битовая глубина : 8 бит
Тип развёртки : Прогрессивная
Бит/(Пиксели*Кадры) : 0.170
Размер потока : 169 Мбайт (88%)
Библиотека кодирования : x264 core 112
Настройки программы : cabac=1 / ref=3 / deblock=1:0:0 / analyse=0x3:0x113 / me=hex / subme=7 / psy=1 / psy_rd=1.00:0.00 / mixed_ref=1 / me_range=16 / chroma_me=1 / trellis=1 / 8x8dct=1 / cqm=0 / deadzone=21,11 / fast_pskip=1 / chroma_qp_offset=-2 / threads=6 / sliced_threads=0 / nr=0 / decimate=1 / interlaced=0 / constrained_intra=0 / bframes=3 / b_pyramid=2 / b_adapt=1 / b_bias=0 / direct=1 / weightb=1 / open_gop=0 / weightp=2 / keyint=300 / keyint_min=29 / scenecut=40 / intra_refresh=0 / rc_lookahead=40 / rc=abr / mbtree=1 / bitrate=2000 / ratetol=1.0 / qcomp=0.60 / qpmin=3 / qpmax=51 / qpstep=4 / ip_ratio=1.40 / aq=1:1.00
Язык : English
Default : Да
Forced : Нет
Цветовой диапазон : Limited
Основные цвета : BT.601 NTSC
Характеристики трансфера : BT.709
Коэффициенты матрицы : BT.601
Аудио
Идентификатор : 2
Формат : AC-3
Формат/Информация : Audio Coding 3
Расширение режима : CM (complete main)
Параметр Endianness формата : Big
Идентификатор кодека : A_AC3
Продолжительность : 11 м.
Вид битрейта : Постоянный
Битрейт : 224 Кбит/сек
Каналы : 1 канал
Расположение каналов : Front: C
Частота : 48,0 КГц
Битовая глубина : 16 бит
Метод сжатия : С потерями
Размер потока : 19,1 Мбайт (10%)
Default : Да
Forced : Нет

Обложка

Скринлист

Main scene

Bonus scene

Скриншоты

                                       
 
Display posts from previous:    
Reply to topic

The time now is: Today 11:02

All times are GMT + 3 Hours



You cannot post new topics in this forum
You cannot reply to topics in this forum
You cannot edit your posts in this forum
You cannot delete your posts in this forum
You cannot vote in polls in this forum
You cannot attach files in this forum
You cannot download files in this forum