Сегодня идет свободное скачивание без начисления Download

Discovery. Как работают машины / Machines: How They Work (2016) HDTVRip (1-10 серий из 10)

Ответить на тему
 
Автор
Сообщение

}{@R0N ®

Стаж: 2 года 9 месяцев

Сообщений: 6446

Торрент-статистика

Пост 08-Ноя-2016 21:45

[Цитировать]

Discovery. Как работают машины / Machines: How They Work (2016) HDTVRip (1-10 серий из 10) - Телекомпания: Канада, Discovery Channel
Жанр: документальный, техника
Описание:
Описание сериала, собственно, заложено в его названии. Многие видели подобные программы - "Как это устроено?", "Как это работает?", из этой передачи вы узнаете о работе самых разных по устройству и назначению машин.

Продолжительность: 10 x ~ 00:44:00
Качество видео: HDTVRip
Перевод: Одноголосый закадровый, профессиональный
Видео: Xvid, 720x400, ~1540 kbp
Аудио: AC3, 2 ch, 192 kbps, CBR

Mediainfo: (тех. данные всех серий идентичны)

Общее
Полное имя : F:\КИНО\Как работают машины\01 Как работают машины.avi
Формат : AVI
Формат/Информация : Audio Video Interleave
Размер файла : 545 Мбайт
Продолжительность : 43 м. 42 с.
Общий поток : 1744 Кбит/сек
Программа кодирования : VirtualDubMod 1.5.10.3 | www.virtualdub-fr.org || (build 2550/release)
Библиотека кодирования : VirtualDubMod build 2550/release
Видео
Идентификатор : 0
Формат : MPEG-4 Visual
Профиль формата : Advanced Simple@L5
Параметр BVOP формата : 1
Параметр QPel формата : Нет
Параметр GMC формата : Без точки перехода
Параметр матрицы формата : Выборочная
Идентификатор кодека : XVID
Идентификатор кодека/Подсказка : XviD
Продолжительность : 43 м. 42 с.
Битрейт : 1541 Кбит/сек
Ширина : 720 пикселей
Высота : 400 пикселей
Соотношение сторон : 16:9
Частота кадров : 30,000 кадров/сек
Цветовое пространство : YUV
Субдискретизация насыщенности : 4:2:0
Битовая глубина : 8 бит
Тип развёртки : Прогрессивная
Метод сжатия : С потерями
Бит/(Пиксели*Кадры) : 0.178
Размер потока : 482 Мбайт (88%)
Библиотека кодирования : XviD 73
Аудио
Идентификатор : 1
Формат : AC-3
Формат/Информация : Audio Coding 3
Расширение режима : CM (complete main)
Параметр Endianness формата : Big
Идентификатор кодека : 2000
Продолжительность : 43 м. 42 с.
Вид битрейта : Постоянный
Битрейт : 192 Кбит/сек
Каналы : 2 канала
Расположение каналов : Front: L R
Частота : 48,0 КГц
Частота кадров : 31,250 кадров/сек (1536 spf)
Метод сжатия : С потерями
Размер потока : 60,0 Мбайт (11%)
Выравнивание : Разделение по промежуткам
Продолжительность промежутка : 33 мс. (1,00 видеокадр)
Время предзагрузки промежутка : 500 мс.
Скриншоты:
       
Вне форума [Профиль] [ЛС]
Показать сообщения:    
Ответить на тему

Текущее время: Сегодня 01:15

Часовой пояс: GMT + 3



Вы не можете начинать темы
Вы не можете отвечать на сообщения
Вы не можете редактировать свои сообщения
Вы не можете удалять свои сообщения
Вы не можете голосовать в опросах
Вы не можете прикреплять файлы к сообщениям
Вы не можете скачивать файлы