Today is a free download without charge Download

Офисная давалка / Ofisnaya davalka ([2016 г., All sex, Amateur, Teens, CamRip] (Unknown guy and girl)

Reply to topic
 
Author
Message

XP1971 ®

Торрент-статистика

Post 19-Oct-2016 01:18

[Quote]

-Офисная давалка / Ofisnaya davalka-- Страна: РФ
Год выпуска: 2016 г.
Жанр: All sex, Amateur, Teens
Студия: N/A
Режиссер: N/A
Продолжительность: 00:05:12
Перевод: Отсутствует
Оригинальный аудиопоток: русский
-В ролях:
Unknown guy and girl
-Описание на русском:
Совсем зеленая выпускница, эдакая куколка-очаровашка пришла в офис на стажировку. Там ей приглянулся наставник, который, в свою очередь, не мог устоять перед такой красотой. Да и девочка оказалась жадной до секеса. Вместо того, чтобы пахать, она развлекается со своим шефом в офисе и у него дома. На что не пойдешь ради повышения! Хотя буквально на днях обещали новую волну сокращений в январе 2017 года... Высосет ли эта пассия себе место под Солнцем? Увидим! Встречайте Офисную Давалку!
-Качество видео: CamRip
Контейнер: MP4
Видео кодек: H.264
Аудио кодек: AAC
Видео: MPEG4 Video (H264) 1280x720 24fps 1637kbps
Аудио: AAC 44100Hz stereo 128kbps

Cубтитры: отсутствуют

Media Info

Код:
Общее
Полное имя : D:\Файлы с Интернета\Ofisnaya davalka.mp4
Формат : MPEG-4
Профиль формата : Base Media
Идентификатор кодека : isom (isom/iso2/avc1/mp41)
Размер файла : 65,8 Мбайт
Продолжительность : 5 м. 11 с.
Общий поток : 1770 Кбит/сек
Программа кодирования : Lavf54.59.106
Видео
Идентификатор : 1
Формат : AVC
Формат/Информация : Advanced Video Codec
Профиль формата : [email protected]/*  */
Параметр CABAC формата : Да
Параметр ReFrames формата : 4 кадра
Идентификатор кодека : avc1
Идентификатор кодека/Информация : Advanced Video Coding
Продолжительность : 5 м. 11 с.
Битрейт : 1623 Кбит/сек
Ширина : 1280 пикселей
Высота : 720 пикселей
Соотношение сторон : 16:9
Соотношение сторон в оригинале : 16:9
Режим частоты кадров : Постоянный
Частота кадров : 24,000 кадра/сек
Цветовое пространство : YUV
Субдискретизация насыщенности : 4:2:0
Битовая глубина : 8 бит
Тип развёртки : Прогрессивная
Бит/(Пиксели*Кадры) : 0.073
Размер потока : 60,9 Мбайт (93%)
Библиотека кодирования : x264 core 133
Настройки программы : cabac=1 / ref=3 / deblock=1:0:0 / analyse=0x3:0x113 / me=hex / subme=7 / psy=1 / psy_rd=1.00:0.00 / mixed_ref=1 / me_range=16 / chroma_me=1 / trellis=1 / 8x8dct=1 / cqm=0 / deadzone=21,11 / fast_pskip=1 / chroma_qp_offset=-2 / threads=4 / lookahead_threads=1 / sliced_threads=0 / nr=0 / decimate=1 / interlaced=0 / bluray_compat=0 / constrained_intra=0 / bframes=3 / b_pyramid=2 / b_adapt=1 / b_bias=0 / direct=1 / weightb=1 / open_gop=0 / weightp=2 / keyint=250 / keyint_min=24 / scenecut=40 / intra_refresh=0 / rc_lookahead=40 / rc=abr / mbtree=1 / bitrate=1623 / ratetol=1.0 / qcomp=0.60 / qpmin=0 / qpmax=69 / qpstep=4 / ip_ratio=1.40 / aq=1:1.00
Аудио
Идентификатор : 2
Формат : AAC
Формат/Информация : Advanced Audio Codec
Профиль формата : LC
Идентификатор кодека : 40
Продолжительность : 5 м. 11 с.
Вид битрейта : Постоянный
Битрейт : 128 Кбит/сек
Каналы : 2 канала
Расположение каналов : Front: L R
Частота : 44,1 КГц
Частота кадров : 43,066 кадра/сек (1024 spf)
Метод сжатия : С потерями
Размер потока : 4,76 Мбайт (7%)
Default : Да
Alternate group : 1

Скринлист

Скриншоты




 
Display posts from previous:    
Reply to topic

The time now is: Today 06:53

All times are GMT + 3 Hours



You cannot post new topics in this forum
You cannot reply to topics in this forum
You cannot edit your posts in this forum
You cannot delete your posts in this forum
You cannot vote in polls in this forum
You cannot attach files in this forum
You cannot download files in this forum