Today is a free download without charge Download

The Tragically Hip - A National Celebration: Live from Kingston [2016, Rock, HDTVRip, 720p]

Reply to topic
 
Author
Message

Omen ®

Longevity: 6 years 9 months

Posts: 181090

Торрент-статистика

Post 12-Sep-2016 01:01

[Quote]

The Tragically Hip - A National Celebration: Live from Kingston
Жанр: Rock
Продолжительность: 02:56:53
Год выпуска: 2016
Треклист:
Live Rogers K-Rock Centre, Kingston, ON, Canada 20.08.2016
01. Fifty-Mission Cap(O Canada sung by the crowd… more )
02. Courage (for Hugh MacLennan)
03. Wheat Kings
04. At the Hundredth Meridian
05. In a World Possessed by the Human Mind
06. What Blue
07. Tired as Fuck
08. Machine(Downie thanked Prime Minister… more )
09. Intermission(Thunder storm visuals & effects)
10. My Music at Work
11. Lake Fever
12. Toronto #4
13. Putting Down
14. Twist My Arm
15. Three Pistols
16. Fiddler's Green
17. Little Bones(Extended Outro)
18. The Last of the Unplucked Gems(Extended Intro while Gord… more )
19. Something On
20. Poets
21. Bobcaygeon
22. Fireworks
Encore:
23. New Orleans Is Sinking
24. Boots or Hearts
25. Blow at High Dough
(Gord thanked the crowd, crew… more )
Encore 2:
26. Nautical Disaster
27. Scared
28. Grace, Too
Encore 3:
29. Locked in the Trunk of a Car
30. Gift Shop
31. Ahead by a Century
Качество: HDTV
Разрешение видео/развертка: 720p
Контейнер: MKV
Видео кодек: H.264
Аудио кодек: DTS, MP2
Видео: AVC, 1280x720 (16:9), 29.970 fps, 4 000 Kbps
Аудио#1: DTS, 48.0 KHz, 6 ch, 1 510 Kbps
Аудио#2: MP2, 48.0 KHz, 2 ch, 384 Kbps

MediaInfo/x264Log

x264Log

avs [info]: 1280x720p 1:1 @ 10000000/333667 fps (cfr)x264 [info]: using SAR=1/1x264 [info]: using cpu capabilities: MMX2 SSE2Fast SSSE3 SSE4.2 AVXx264 [info]: profile High, level 4.1x264 [info]: frame I:1678 Avg QP:13.57 size: 91631x264 [info]: frame P:81603 Avg QP:17.07 size: 34913x264 [info]: frame B:234804 Avg QP:20.89 size: 9813x264 [info]: consecutive B-frames: 2.9% 4.2% 14.4% 33.3% 20.6% 20.1% 2.0% 0.6% 0.3% 1.6%x264 [info]: mb I I16..4: 14.7% 58.2% 27.1%x264 [info]: mb P I16..4: 5.3% 9.1% 2.5% P16..4: 40.7% 17.1% 11.8% 1.2% 0.5% skip:11.8%x264 [info]: mb B I16..4: 0.6% 0.5% 0.2% B16..8: 39.9% 9.2% 2.1% direct: 4.5% skip:43.1% L0:40.6% L1:46.4% BI:13.0%x264 [info]: 8x8 transform intra:52.3% inter:49.4%x264 [info]: direct mvs spatial:91.2% temporal:8.8%x264 [info]: coded y,uvDC,uvAC intra: 46.9% 52.3% 30.6% inter: 12.4% 14.7% 4.1%x264 [info]: i16 v,h,dc,p: 52% 12% 9% 27%x264 [info]: i8 v,h,dc,ddl,ddr,vr,hd,vl,hu: 10% 7% 16% 9% 12% 13% 11% 11% 11%x264 [info]: i4 v,h,dc,ddl,ddr,vr,hd,vl,hu: 12% 7% 10% 11% 14% 13% 11% 11% 12%x264 [info]: i8c dc,h,v,p: 52% 19% 18% 11%x264 [info]: Weighted P-Frames: Y:5.8% UV:3.7%x264 [info]: ref P L0: 53.7% 7.8% 17.3% 6.3% 4.6% 3.4% 2.8% 1.8% 1.7% 0.5% 0.0%x264 [info]: ref B L0: 82.5% 9.2% 3.6% 1.7% 1.2% 0.9% 0.6% 0.3%x264 [info]: ref B L1: 94.2% 5.8%x264 [info]: kb/s:4000.06x264 [total]: encoded 318085 frames, 1.32 fps, 4000.06 kb/s
GeneralUnique ID : 203155515580398972676899425942887607970 (0x98D6543EBE08947082C6A73B2D262EA2)Complete name : O:\The Tragically Hip - Live Rogers K-Rock Centre.2016.HDTVRip720p.mkvFormat : MatroskaFormat version : Version 4 / Version 2File size : 7.28 GiBDuration : 2h 56mnOverall bit rate : 5 896 KbpsEncoded date : UTC 2016-09-10 20:45:16Writing application : mkvmerge v8.6.0 ('A Place In Your World') 64bitWriting library : libebml v1.3.3 + libmatroska v1.4.4
VideoID : 1Format : AVCFormat/Info : Advanced Video CodecFormat profile : High@L4.1Format settings, CABAC : YesFormat settings, ReFrames : 9 framesCodec ID : V_MPEG4/ISO/AVCDuration : 2h 56mnBit rate : 4 000 KbpsWidth : 1 280 pixelsHeight : 720 pixelsDisplay aspect ratio : 16:9Frame rate mode : ConstantFrame rate : 29.970 (30000/1001) fpsOriginal frame rate : 29.970 (29970/1000) fpsColor space : YUVChroma subsampling : 4:2:0Bit depth : 8 bitsScan type : ProgressiveBits/(Pixel*Frame) : 0.145Stream size : 4.94 GiB (68%)Writing library : x264 core 130 r2273 b3065e6Encoding settings : cabac=1 / ref=9 / deblock=1:-1:-1 / analyse=0x3:0x133 / me=umh / subme=10 / psy=1 / psy_rd=1.00:0.15 / mixed_ref=1 / me_range=30 / chroma_me=1 / trellis=2 / 8x8dct=1 / cqm=0 / deadzone=21,11 / fast_pskip=1 / chroma_qp_offset=-3 / threads=6 / lookahead_threads=1 / sliced_threads=0 / nr=0 / decimate=1 / interlaced=0 / bluray_compat=0 / constrained_intra=0 / bframes=9 / b_pyramid=2 / b_adapt=2 / b_bias=0 / direct=3 / weightb=1 / open_gop=0 / weightp=2 / keyint=250 / keyint_min=25 / scenecut=40 / intra_refresh=0 / rc_lookahead=60 / rc=2pass / mbtree=1 / bitrate=4000 / ratetol=1.0 / qcomp=0.60 / qpmin=0 / qpmax=69 / qpstep=4 / cplxblur=20.0 / qblur=0.5 / ip_ratio=1.40 / aq=1:1.00Default : YesForced : No
Audio #1ID : 2Format : DTSFormat/Info : Digital Theater SystemsMode : 16Format settings, Endianness : BigCodec ID : A_DTSDuration : 2h 56mnBit rate mode : ConstantBit rate : 1 509 KbpsChannel(s) : 6 channelsChannel positions : Front: L C R, Side: L R, LFESampling rate : 48.0 KHzFrame rate : 93.750 fps (512 spf)Bit depth : 24 bitsCompression mode : LossyStream size : 1.86 GiB (26%)Default : YesForced : No
Audio #2ID : 3Format : MPEG AudioFormat version : Version 1Format profile : Layer 2Codec ID : A_MPEG/L2Codec ID/Hint : MP2Duration : 2h 56mnBit rate mode : ConstantBit rate : 384 KbpsChannel(s) : 2 channelsSampling rate : 48.0 KHzFrame rate : 41.667 fps (1152 spf)Compression mode : LossyStream size : 486 MiB (7%)Default : NoForced : No
Other forum [Profile] [PM]
Display posts from previous:    
Reply to topic

The time now is: Today 18:01

All times are GMT + 3 Hours



You cannot post new topics in this forum
You cannot reply to topics in this forum
You cannot edit your posts in this forum
You cannot delete your posts in this forum
You cannot vote in polls in this forum
You cannot attach files in this forum
You cannot download files in this forum