Today is a free download without charge Download

Девчата (Юрий Чулюкин) [1961, Мелодрама, Комедия, BDRip]

Reply to topic
 
Author
Message

Russian Mafia ®

Gender:

Longevity: 4 years 1 month

Posts: 339

Торрент-статистика

Post 13-Aug-2016 11:33

[Quote]

Русское название: Девчата
Год выпуска: 1961
Страна: CCCP
Жанр: Мелодрама, Комедия
Перевод: Оригинал-Дата выхода Blu-Ray релиза: 8 мая 2012, «Парадиз Медиа-Режиссер: Юрий Чулюкин
Актеры: Надежда Румянцева, Николай Рыбников, Люсьена Овчинникова, Станислав Хитров, Инна Макарова, Светлана Дружинина, Нина Меньшикова, Николай Погодин, Михаил Пуговкин, Анатолий Адоскин--Описание фильма: В сибирский поселок приехала юная повариха Тося Кислицына - наивная и эксцентричная девчонка. Она сует свой нос во все дела, каждому стремится помочь. Местный красавец Илья на спор заводит с Тосей роман, сопровождающийся массой комичных ситуаций...--Продолжительность: 01:36:02
Качество видео: BDRip--Видеокодек:: XviD
Битрейт видео: 1717 Кбит/с
Размер кадра: 720x304
Аудио: Русский; AC3; 6 ch; 448 Кбит/с-

Mediainfo

General
Complete name : D:\uTorrent\Devchata.1961.BDRip.avi
Format : AVI
Format/Info : Audio Video Interleave
File size : 1.46 GiB
Duration : 1h 36mn
Overall bit rate : 2 174 Kbps
Writing application : VirtualDubMod 1.5.10.3 | (build 2550/release)
Video
ID : 0
Format : MPEG-4 Visual
Format profile : Advanced Simple@L5
Format settings, BVOP : 2
Format settings, QPel : No
Format settings, GMC : No warppoints
Format settings, Matrix : Custom
Codec ID : XVID
Codec ID/Hint : XviD
Duration : 1h 36mn
Bit rate : 1 717 Kbps
Width : 720 pixels
Height : 304 pixels
Display aspect ratio : 2.35:1
Frame rate : 23.976 fps
Color space : YUV
Chroma subsampling : 4:2:0
Bit depth : 8 bits
Scan type : Progressive
Compression mode : Lossy
Bits/(Pixel*Frame) : 0.327
Stream size : 1.15 GiB (79%)
Writing library : XviD 1.2.1 (UTC 2008-12-04)
Audio
ID : 1
Format : AC-3
Format/Info : Audio Coding 3
Mode extension : CM (complete main)
Format settings, Endianness : Big
Codec ID : 2000
Duration : 1h 36mn
Bit rate mode : Constant
Bit rate : 448 Kbps
Channel(s) : 6 channels
Channel positions : Front: L C R, Side: L R, LFE
Sampling rate : 48.0 KHz
Bit depth : 16 bits
Compression mode : Lossy
Stream size : 308 MiB (21%)
Alignment : Split accross interleaves
Interleave, duration : 42 ms (1.00 video frame)
Interleave, preload duration : 500 ms
-

Скриншоты

       
Other forum [Profile] [PM]
Display posts from previous:    
Reply to topic

The time now is: Today 21:18

All times are GMT + 3 Hours



You cannot post new topics in this forum
You cannot reply to topics in this forum
You cannot edit your posts in this forum
You cannot delete your posts in this forum
You cannot vote in polls in this forum
You cannot attach files in this forum
You cannot download files in this forum