Today is a free download without charge Download

Brian Tyler - Иллюзия обмана 2 / Now You See Me 2 (Original Motion Picture Soundtrack) (2016) [AAC|WEB-DL|256 кб/с]<Soundtrack>

Reply to topic
 
Author
Message

Varius ®

Gender:

Longevity: 9 years 1 month

Posts: 2407

Location: Hell

Торрент-статистика

Post 13-Jul-2016 00:37

[Quote]

Иллюзия обмана 2 / Now You See Me 2 (Original Motion Picture Soundtrack) (2016)- Год: 2016
Жанр: Soundtrack, Score
Композитор: Brian Tyler
Продолжительность: 01:17:40-Кодек: AAC
Битрейт: 256 кб/с
Тип битрейта: VBR
Наличие сканов: Digital Booklet- -Треклист:
01. Now You See Me 2 Fanfare (03:20)
02. Now You See Me 2 Main Titles (03:00)
03. 300 Seconds (07:25)
04. Setup (05:45)
05. Sleight of Hand (05:52)
06. Revelatory (01:24)
07. Special Invitation (04:38)
08. Equivoque (03:18)
09. Off the Grid (Walter’s Theme) (02:13)
10. Trifecta (03:53)
11. Fool (01:55)
12. Buffy the Chippie (02:58)
13. Behind the Curtain (04:10)

Продолжения треклиста

14. Thaddeus’ Game (02:23)
15. Octa (01:37)
16. United (01:36)
17. Deliverance (04:10)
18. Diversion Tactics (04:35)
19. Sibling Rivalry (01:55)
20. Bazaar Getaway (02:09)
21. New Horseman (01:05)
22. See You in 3 to 5 (01:41)
23. Big Finish (03:56)
24. Finale (02:40)

-

Mediainfo&#58;

Код:
Общее
Полное имя : E:\ТОРРЕНТЫ\ЗАГРУЗКИ\Иллюзия обмана 2 (Original Motion Picture Soundtrack) (2016) (iTunes)\01. Now You See Me 2 Fanfare.m4a
Формат : MPEG-4
Профиль формата : Apple audio with iTunes info
Идентификатор кодека : M4A (M4A /mp42/isom)
Размер файла : 6,98 Мбайт
Продолжительность : 3 м. 19 с.
Режим общего битрейта : Переменный
Общий поток : 294 Кбит/сек
Альбом : Now You See Me 2 (Original Motion Picture Soundtrack)
Альбом/Исполнитель : Brian Tyler
Часть/Положение : 1
Часть/Всего : 1
Трек : Now You See Me 2 Fanfare
Трек/Положение : 1
Трек/Всего : 24
Исполнитель : Brian Tyler
Композитор : Brian Tyler
Издатель : Varese Sarabande Records
Жанр : Soundtrack
Дата записи : 2016
Дата кодирования : UTC 2023-07-14 22:04:03
Дата пометки : UTC 2016-06-11 13:56:49
Авторское право : ℗ 2016 Summit Entertainment, LLC, under exclusive license to Varese Sarabande Records
Обложка : Yes
Примечание : Release by sergey26.08 (https://vk.com/sergeibondarenko93)
Flavour : 2:256
WWW : https://vk.com/sergeibondarenko93
Аудио
Идентификатор : 1
Формат : AAC
Формат/Информация : Advanced Audio Codec
Профиль формата : LC
Идентификатор кодека : 40
Продолжительность : 3 м. 19 с.
Вид битрейта : Переменный
Битрейт : 256 Кбит/сек
Максимальный битрейт : 302 Кбит/сек
Каналы : 2 канала
Расположение каналов : Front: L R
Частота : 44,1 КГц
Частота кадров : 43,066 кадра/сек (1024 spf)
Метод сжатия : С потерями
Размер потока : 6,42 Мбайт (92%)
Язык : English
Дата кодирования : UTC 2023-07-14 22:04:03
Дата пометки : UTC 2016-06-11 13:56:49
linf :
Общее
Полное имя : E:\ТОРРЕНТЫ\ЗАГРУЗКИ\Иллюзия обмана 2 (Original Motion Picture Soundtrack) (2016) (iTunes)\02. Now You See Me 2 Main Titles.m4a
Формат : MPEG-4
Профиль формата : Apple audio with iTunes info
Идентификатор кодека : M4A (M4A /mp42/isom)
Размер файла : 6,56 Мбайт
Продолжительность : 3 м. 0 с.
Режим общего битрейта : Переменный
Общий поток : 305 Кбит/сек
Альбом : Now You See Me 2 (Original Motion Picture Soundtrack)
Альбом/Исполнитель : Brian Tyler
Часть/Положение : 1
Часть/Всего : 1
Трек : Now You See Me 2 Main Titles
Трек/Положение : 2
Трек/Всего : 24
Исполнитель : Brian Tyler
Композитор : Brian Tyler
Издатель : Varese Sarabande Records
Жанр : Soundtrack
Дата записи : 2016
Дата кодирования : UTC 2037-11-20 19:11:15
Дата пометки : UTC 2016-06-11 13:57:24
Авторское право : ℗ 2016 Summit Entertainment, LLC, under exclusive license to Varese Sarabande Records
Обложка : Yes
Примечание : Release by sergey26.08 (https://vk.com/sergeibondarenko93)
Flavour : 2:256
WWW : https://vk.com/sergeibondarenko93
Аудио
Идентификатор : 1
Формат : AAC
Формат/Информация : Advanced Audio Codec
Профиль формата : LC
Идентификатор кодека : 40
Продолжительность : 3 м. 0 с.
Вид битрейта : Переменный
Битрейт : 279 Кбит/сек
Номинальный битрейт : 256 Кбит/сек
Максимальный битрейт : 312 Кбит/сек
Каналы : 2 канала
Расположение каналов : Front: L R
Частота : 44,1 КГц
Частота кадров : 43,066 кадра/сек (1024 spf)
Метод сжатия : С потерями
Размер потока : 6,00 Мбайт (91%)
Язык : English
Дата кодирования : UTC 2037-11-20 19:11:15
Дата пометки : UTC 2016-06-11 13:57:24
linf :
Общее
Полное имя : E:\ТОРРЕНТЫ\ЗАГРУЗКИ\Иллюзия обмана 2 (Original Motion Picture Soundtrack) (2016) (iTunes)\03. 300 Seconds.m4a
Формат : MPEG-4
Профиль формата : Apple audio with iTunes info
Идентификатор кодека : M4A (M4A /mp42/isom)
Размер файла : 15,3 Мбайт
Продолжительность : 7 м. 25 с.
Режим общего битрейта : Переменный
Общий поток : 288 Кбит/сек
Альбом : Now You See Me 2 (Original Motion Picture Soundtrack)
Альбом/Исполнитель : Brian Tyler
Часть/Положение : 1
Часть/Всего : 1
Трек : 300 Seconds
Трек/Положение : 3
Трек/Всего : 24
Исполнитель : Brian Tyler
Композитор : Brian Tyler
Издатель : Varese Sarabande Records
Жанр : Soundtrack
Дата записи : 2016
Дата пометки : UTC 2016-06-11 13:58:46
Авторское право : ℗ 2016 Summit Entertainment, LLC, under exclusive license to Varese Sarabande Records
Обложка : Yes
Примечание : Release by sergey26.08 (https://vk.com/sergeibondarenko93)
Flavour : 2:256
WWW : https://vk.com/sergeibondarenko93
Аудио
Идентификатор : 1
Формат : AAC
Формат/Информация : Advanced Audio Codec
Профиль формата : LC
Идентификатор кодека : 40
Продолжительность : 7 м. 25 с.
Вид битрейта : Переменный
Битрейт : 276 Кбит/сек
Номинальный битрейт : 256 Кбит/сек
Максимальный битрейт : 316 Кбит/сек
Каналы : 2 канала
Расположение каналов : Front: L R
Частота : 44,1 КГц
Частота кадров : 43,066 кадра/сек (1024 spf)
Метод сжатия : С потерями
Размер потока : 14,7 Мбайт (96%)
Язык : English
Дата пометки : UTC 2016-06-11 13:58:46
linf :
Общее
Полное имя : E:\ТОРРЕНТЫ\ЗАГРУЗКИ\Иллюзия обмана 2 (Original Motion Picture Soundtrack) (2016) (iTunes)\04. The Setup.m4a
Формат : MPEG-4
Профиль формата : Apple audio with iTunes info
Идентификатор кодека : M4A (M4A /mp42/isom)
Размер файла : 12,2 Мбайт
Продолжительность : 5 м. 45 с.
Режим общего битрейта : Переменный
Общий поток : 297 Кбит/сек
Альбом : Now You See Me 2 (Original Motion Picture Soundtrack)
Альбом/Исполнитель : Brian Tyler
Часть/Положение : 1
Часть/Всего : 1
Трек : The Setup
Трек/Положение : 4
Трек/Всего : 24
Исполнитель : Brian Tyler
Композитор : Brian Tyler
Издатель : Varese Sarabande Records
Жанр : Soundtrack
Дата записи : 2016
Дата пометки : UTC 2016-06-11 13:58:13
Авторское право : ℗ 2016 Summit Entertainment, LLC, under exclusive license to Varese Sarabande Records
Обложка : Yes
Примечание : Release by sergey26.08 (https://vk.com/sergeibondarenko93)
Flavour : 2:256
WWW : https://vk.com/sergeibondarenko93
Аудио
Идентификатор : 1
Формат : AAC
Формат/Информация : Advanced Audio Codec
Профиль формата : LC
Идентификатор кодека : 40
Продолжительность : 5 м. 45 с.
Вид битрейта : Переменный
Битрейт : 288 Кбит/сек
Номинальный битрейт : 256 Кбит/сек
Максимальный битрейт : 429 Кбит/сек
Каналы : 2 канала
Расположение каналов : Front: L R
Частота : 44,1 КГц
Частота кадров : 43,066 кадра/сек (1024 spf)
Метод сжатия : С потерями
Размер потока : 11,6 Мбайт (95%)
Язык : English
Дата пометки : UTC 2016-06-11 13:58:13
linf :
Общее
Полное имя : E:\ТОРРЕНТЫ\ЗАГРУЗКИ\Иллюзия обмана 2 (Original Motion Picture Soundtrack) (2016) (iTunes)\05. Sleight of Hand.m4a
Формат : MPEG-4
Профиль формата : Apple audio with iTunes info
Идентификатор кодека : M4A (M4A /mp42/isom)
Размер файла : 12,5 Мбайт
Продолжительность : 5 м. 52 с.
Режим общего битрейта : Переменный
Общий поток : 298 Кбит/сек
Альбом : Now You See Me 2 (Original Motion Picture Soundtrack)
Альбом/Исполнитель : Brian Tyler
Часть/Положение : 1
Часть/Всего : 1
Трек : Sleight of Hand
Трек/Положение : 5
Трек/Всего : 24
Исполнитель : Brian Tyler
Композитор : Brian Tyler
Издатель : Varese Sarabande Records
Жанр : Soundtrack
Дата записи : 2016
Дата кодирования : UTC 1983-08-31 02:56:19
Дата пометки : UTC 2016-06-11 13:58:48
Авторское право : ℗ 2016 Summit Entertainment, LLC, under exclusive license to Varese Sarabande Records
Обложка : Yes
Примечание : Release by sergey26.08 (https://vk.com/sergeibondarenko93)
Flavour : 2:256
WWW : https://vk.com/sergeibondarenko93
Аудио
Идентификатор : 1
Формат : AAC
Формат/Информация : Advanced Audio Codec
Профиль формата : LC
Идентификатор кодека : 40
Продолжительность : 5 м. 52 с.
Вид битрейта : Переменный
Битрейт : 288 Кбит/сек
Номинальный битрейт : 256 Кбит/сек
Максимальный битрейт : 307 Кбит/сек
Каналы : 2 канала
Расположение каналов : Front: L R
Частота : 44,1 КГц
Частота кадров : 43,066 кадра/сек (1024 spf)
Метод сжатия : С потерями
Размер потока : 11,9 Мбайт (95%)
Язык : English
Дата кодирования : UTC 1983-08-31 02:56:19
Дата пометки : UTC 2016-06-11 13:58:48
linf :
Общее
Полное имя : E:\ТОРРЕНТЫ\ЗАГРУЗКИ\Иллюзия обмана 2 (Original Motion Picture Soundtrack) (2016) (iTunes)\06. Revelatory.m4a
Формат : MPEG-4
Профиль формата : Apple audio with iTunes info
Идентификатор кодека : M4A (M4A /mp42/isom)
Размер файла : 3,47 Мбайт
Продолжительность : 1 м. 24 с.
Режим общего битрейта : Переменный
Общий поток : 344 Кбит/сек
Альбом : Now You See Me 2 (Original Motion Picture Soundtrack)
Альбом/Исполнитель : Brian Tyler
Часть/Положение : 1
Часть/Всего : 1
Трек : Revelatory
Трек/Положение : 6
Трек/Всего : 24
Исполнитель : Brian Tyler
Композитор : Brian Tyler
Издатель : Varese Sarabande Records
Жанр : Soundtrack
Дата записи : 2016
Дата кодирования : UTC 1992-09-13 04:40:51
Дата пометки : UTC 2016-06-11 13:58:54
Авторское право : ℗ 2016 Summit Entertainment, LLC, under exclusive license to Varese Sarabande Records
Обложка : Yes
Примечание : Release by sergey26.08 (https://vk.com/sergeibondarenko93)
Flavour : 2:256
WWW : https://vk.com/sergeibondarenko93
Аудио
Идентификатор : 1
Формат : AAC
Формат/Информация : Advanced Audio Codec
Профиль формата : LC
Идентификатор кодека : 40
Продолжительность : 1 м. 24 с.
Вид битрейта : Переменный
Битрейт : 288 Кбит/сек
Номинальный битрейт : 256 Кбит/сек
Максимальный битрейт : 463 Кбит/сек
Каналы : 2 канала
Расположение каналов : Front: L R
Частота : 44,1 КГц
Частота кадров : 43,066 кадра/сек (1024 spf)
Метод сжатия : С потерями
Размер потока : 2,92 Мбайт (84%)
Язык : English
Дата кодирования : UTC 1992-09-13 04:40:51
Дата пометки : UTC 2016-06-11 13:58:54
linf :
Общее
Полное имя : E:\ТОРРЕНТЫ\ЗАГРУЗКИ\Иллюзия обмана 2 (Original Motion Picture Soundtrack) (2016) (iTunes)\07. A Special Invitation.m4a
Формат : MPEG-4
Профиль формата : Apple audio with iTunes info
Идентификатор кодека : M4A (M4A /mp42/isom)
Размер файла : 10,1 Мбайт
Продолжительность : 4 м. 37 с.
Режим общего битрейта : Переменный
Общий поток : 305 Кбит/сек
Альбом : Now You See Me 2 (Original Motion Picture Soundtrack)
Альбом/Исполнитель : Brian Tyler
Часть/Положение : 1
Часть/Всего : 1
Трек : A Special Invitation
Трек/Положение : 7
Трек/Всего : 24
Исполнитель : Brian Tyler
Композитор : Brian Tyler
Издатель : Varese Sarabande Records
Жанр : Soundtrack
Дата записи : 2016
Дата кодирования : UTC 2016-02-04 03:32:35
Дата пометки : UTC 2016-06-11 13:59:55
Авторское право : ℗ 2016 Summit Entertainment, LLC, under exclusive license to Varese Sarabande Records
Обложка : Yes
Примечание : Release by sergey26.08 (https://vk.com/sergeibondarenko93)
Flavour : 2:256
WWW : https://vk.com/sergeibondarenko93
Аудио
Идентификатор : 1
Формат : AAC
Формат/Информация : Advanced Audio Codec
Профиль формата : LC
Идентификатор кодека : 40
Продолжительность : 4 м. 37 с.
Вид битрейта : Переменный
Битрейт : 288 Кбит/сек
Номинальный битрейт : 256 Кбит/сек
Максимальный битрейт : 312 Кбит/сек
Каналы : 2 канала
Расположение каналов : Front: L R
Частота : 44,1 КГц
Частота кадров : 43,066 кадра/сек (1024 spf)
Метод сжатия : С потерями
Размер потока : 9,50 Мбайт (94%)
Язык : English
Дата кодирования : UTC 2016-02-04 03:32:35
Дата пометки : UTC 2016-06-11 13:59:55
linf :
Общее
Полное имя : E:\ТОРРЕНТЫ\ЗАГРУЗКИ\Иллюзия обмана 2 (Original Motion Picture Soundtrack) (2016) (iTunes)\08. Equivoque.m4a
Формат : MPEG-4
Профиль формата : Apple audio with iTunes info
Идентификатор кодека : M4A (M4A /mp42/isom)
Размер файла : 7,30 Мбайт
Продолжительность : 3 м. 17 с.
Режим общего битрейта : Переменный
Общий поток : 310 Кбит/сек
Альбом : Now You See Me 2 (Original Motion Picture Soundtrack)
Альбом/Исполнитель : Brian Tyler
Часть/Положение : 1
Часть/Всего : 1
Трек : Equivoque
Трек/Положение : 8
Трек/Всего : 24
Исполнитель : Brian Tyler
Композитор : Brian Tyler
Издатель : Varese Sarabande Records
Жанр : Soundtrack
Дата записи : 2016
Дата кодирования : UTC 2032-01-16 13:40:35
Дата пометки : UTC 2016-06-11 13:59:53
Авторское право : ℗ 2016 Summit Entertainment, LLC, under exclusive license to Varese Sarabande Records
Обложка : Yes
Примечание : Release by sergey26.08 (https://vk.com/sergeibondarenko93)
Flavour : 2:256
WWW : https://vk.com/sergeibondarenko93
Аудио
Идентификатор : 1
Формат : AAC
Формат/Информация : Advanced Audio Codec
Профиль формата : LC
Идентификатор кодека : 40
Продолжительность : 3 м. 17 с.
Вид битрейта : Переменный
Битрейт : 288 Кбит/сек
Номинальный битрейт : 256 Кбит/сек
Максимальный битрейт : 315 Кбит/сек
Каналы : 2 канала
Расположение каналов : Front: L R
Частота : 44,1 КГц
Частота кадров : 43,066 кадра/сек (1024 spf)
Метод сжатия : С потерями
Размер потока : 6,74 Мбайт (92%)
Язык : English
Дата кодирования : UTC 2032-01-16 13:40:35
Дата пометки : UTC 2016-06-11 13:59:53
linf :
Общее
Полное имя : E:\ТОРРЕНТЫ\ЗАГРУЗКИ\Иллюзия обмана 2 (Original Motion Picture Soundtrack) (2016) (iTunes)\09. Off the Grid (Walter's Theme).m4a
Формат : MPEG-4
Профиль формата : Apple audio with iTunes info
Идентификатор кодека : M4A (M4A /mp42/isom)
Размер файла : 4,86 Мбайт
Продолжительность : 2 м. 13 с.
Режим общего битрейта : Переменный
Общий поток : 305 Кбит/сек
Альбом : Now You See Me 2 (Original Motion Picture Soundtrack)
Альбом/Исполнитель : Brian Tyler
Часть/Положение : 1
Часть/Всего : 1
Трек : Off the Grid (Walter's Theme)
Трек/Положение : 9
Трек/Всего : 24
Исполнитель : Brian Tyler
Композитор : Brian Tyler
Издатель : Varese Sarabande Records
Жанр : Soundtrack
Дата записи : 2016
Дата пометки : UTC 2016-06-11 13:59:39
Авторское право : ℗ 2016 Summit Entertainment, LLC, under exclusive license to Varese Sarabande Records
Обложка : Yes
Примечание : Release by sergey26.08 (https://vk.com/sergeibondarenko93)
Flavour : 2:256
WWW : https://vk.com/sergeibondarenko93
Аудио
Идентификатор : 1
Формат : AAC
Формат/Информация : Advanced Audio Codec
Профиль формата : LC
Идентификатор кодека : 40
Продолжительность : 2 м. 13 с.
Вид битрейта : Переменный
Битрейт : 271 Кбит/сек
Номинальный битрейт : 256 Кбит/сек
Максимальный битрейт : 299 Кбит/сек
Каналы : 2 канала
Расположение каналов : Front: L R
Частота : 44,1 КГц
Частота кадров : 43,066 кадра/сек (1024 spf)
Метод сжатия : С потерями
Размер потока : 4,30 Мбайт (89%)
Язык : English
Дата пометки : UTC 2016-06-11 13:59:39
linf :
Общее
Полное имя : E:\ТОРРЕНТЫ\ЗАГРУЗКИ\Иллюзия обмана 2 (Original Motion Picture Soundtrack) (2016) (iTunes)\10. Trifecta.m4a
Формат : MPEG-4
Профиль формата : Apple audio with iTunes info
Идентификатор кодека : M4A (M4A /mp42/isom)
Размер файла : 8,48 Мбайт
Продолжительность : 3 м. 53 с.
Режим общего битрейта : Переменный
Общий поток : 305 Кбит/сек
Альбом : Now You See Me 2 (Original Motion Picture Soundtrack)
Альбом/Исполнитель : Brian Tyler
Часть/Положение : 1
Часть/Всего : 1
Трек : Trifecta
Трек/Положение : 10
Трек/Всего : 24
Исполнитель : Brian Tyler
Композитор : Brian Tyler
Издатель : Varese Sarabande Records
Жанр : Soundtrack
Дата записи : 2016
Дата пометки : UTC 2016-06-11 14:00:40
Авторское право : ℗ 2016 Summit Entertainment, LLC, under exclusive license to Varese Sarabande Records
Обложка : Yes
Примечание : Release by sergey26.08 (https://vk.com/sergeibondarenko93)
Flavour : 2:256
WWW : https://vk.com/sergeibondarenko93
Аудио
Идентификатор : 1
Формат : AAC
Формат/Информация : Advanced Audio Codec
Профиль формата : LC
Идентификатор кодека : 40
Продолжительность : 3 м. 53 с.
Вид битрейта : Переменный
Битрейт : 288 Кбит/сек
Номинальный битрейт : 256 Кбит/сек
Максимальный битрейт : 354 Кбит/сек
Каналы : 2 канала
Расположение каналов : Front: L R
Частота : 44,1 КГц
Частота кадров : 43,066 кадра/сек (1024 spf)
Метод сжатия : С потерями
Размер потока : 7,90 Мбайт (93%)
Язык : English
Дата пометки : UTC 2016-06-11 14:00:40
linf :
Общее
Полное имя : E:\ТОРРЕНТЫ\ЗАГРУЗКИ\Иллюзия обмана 2 (Original Motion Picture Soundtrack) (2016) (iTunes)\11. The Fool.m4a
Формат : MPEG-4
Профиль формата : Apple audio with iTunes info
Идентификатор кодека : M4A (M4A /mp42/isom)
Размер файла : 4,20 Мбайт
Продолжительность : 1 м. 54 с.
Режим общего битрейта : Переменный
Общий поток : 307 Кбит/сек
Альбом : Now You See Me 2 (Original Motion Picture Soundtrack)
Альбом/Исполнитель : Brian Tyler
Часть/Положение : 1
Часть/Всего : 1
Трек : The Fool
Трек/Положение : 11
Трек/Всего : 24
Исполнитель : Brian Tyler
Композитор : Brian Tyler
Издатель : Varese Sarabande Records
Жанр : Soundtrack
Дата записи : 2016
Дата пометки : UTC 2016-06-11 14:00:28
Авторское право : ℗ 2016 Summit Entertainment, LLC, under exclusive license to Varese Sarabande Records
Обложка : Yes
Примечание : Release by sergey26.08 (https://vk.com/sergeibondarenko93)
Flavour : 2:256
WWW : https://vk.com/sergeibondarenko93
Аудио
Идентификатор : 1
Формат : AAC
Формат/Информация : Advanced Audio Codec
Профиль формата : LC
Идентификатор кодека : 40
Продолжительность : 1 м. 54 с.
Вид битрейта : Переменный
Битрейт : 256 Кбит/сек
Максимальный битрейт : 311 Кбит/сек
Каналы : 2 канала
Расположение каналов : Front: L R
Частота : 44,1 КГц
Частота кадров : 43,066 кадра/сек (1024 spf)
Метод сжатия : С потерями
Размер потока : 3,65 Мбайт (87%)
Язык : English
Дата пометки : UTC 2016-06-11 14:00:28
linf :
Общее
Полное имя : E:\ТОРРЕНТЫ\ЗАГРУЗКИ\Иллюзия обмана 2 (Original Motion Picture Soundtrack) (2016) (iTunes)\12. Buffy the Chippie.m4a
Формат : MPEG-4
Профиль формата : Apple audio with iTunes info
Идентификатор кодека : M4A (M4A /mp42/isom)
Размер файла : 6,51 Мбайт
Продолжительность : 2 м. 57 с.
Режим общего битрейта : Переменный
Общий поток : 307 Кбит/сек
Альбом : Now You See Me 2 (Original Motion Picture Soundtrack)
Альбом/Исполнитель : Brian Tyler
Часть/Положение : 1
Часть/Всего : 1
Трек : Buffy the Chippie
Трек/Положение : 12
Трек/Всего : 24
Исполнитель : Brian Tyler
Композитор : Brian Tyler
Издатель : Varese Sarabande Records
Жанр : Soundtrack
Дата записи : 2016
Дата пометки : UTC 2016-06-11 14:00:38
Авторское право : ℗ 2016 Summit Entertainment, LLC, under exclusive license to Varese Sarabande Records
Обложка : Yes
Примечание : Release by sergey26.08 (https://vk.com/sergeibondarenko93)
Flavour : 2:256
WWW : https://vk.com/sergeibondarenko93
Аудио
Идентификатор : 1
Формат : AAC
Формат/Информация : Advanced Audio Codec
Профиль формата : LC
Идентификатор кодека : 40
Продолжительность : 2 м. 57 с.
Вид битрейта : Переменный
Битрейт : 281 Кбит/сек
Номинальный битрейт : 256 Кбит/сек
Максимальный битрейт : 318 Кбит/сек
Каналы : 2 канала
Расположение каналов : Front: L R
Частота : 44,1 КГц
Частота кадров : 43,066 кадра/сек (1024 spf)
Метод сжатия : С потерями
Размер потока : 5,95 Мбайт (91%)
Язык : English
Дата пометки : UTC 2016-06-11 14:00:38
linf :
Общее
Полное имя : E:\ТОРРЕНТЫ\ЗАГРУЗКИ\Иллюзия обмана 2 (Original Motion Picture Soundtrack) (2016) (iTunes)\13. Behind the Curtain.m4a
Формат : MPEG-4
Профиль формата : Apple audio with iTunes info
Идентификатор кодека : M4A (M4A /mp42/isom)
Размер файла : 8,41 Мбайт
Продолжительность : 4 м. 10 с.
Режим общего битрейта : Переменный
Общий поток : 282 Кбит/сек
Альбом : Now You See Me 2 (Original Motion Picture Soundtrack)
Альбом/Исполнитель : Brian Tyler
Часть/Положение : 1
Часть/Всего : 1
Трек : Behind the Curtain
Трек/Положение : 13
Трек/Всего : 24
Исполнитель : Brian Tyler
Композитор : Brian Tyler
Издатель : Varese Sarabande Records
Жанр : Soundtrack
Дата записи : 2016
Дата кодирования : UTC 1973-07-25 10:43:31
Дата пометки : UTC 2016-06-11 14:01:29
Авторское право : ℗ 2016 Summit Entertainment, LLC, under exclusive license to Varese Sarabande Records
Обложка : Yes
Примечание : Release by sergey26.08 (https://vk.com/sergeibondarenko93)
Flavour : 2:256
WWW : https://vk.com/sergeibondarenko93
Аудио
Идентификатор : 1
Формат : AAC
Формат/Информация : Advanced Audio Codec
Профиль формата : LC
Идентификатор кодека : 40
Продолжительность : 4 м. 10 с.
Вид битрейта : Переменный
Битрейт : 256 Кбит/сек
Максимальный битрейт : 322 Кбит/сек
Каналы : 2 канала
Расположение каналов : Front: L R
Частота : 44,1 КГц
Частота кадров : 43,066 кадра/сек (1024 spf)
Метод сжатия : С потерями
Размер потока : 7,83 Мбайт (93%)
Язык : English
Дата кодирования : UTC 1973-07-25 10:43:31
Дата пометки : UTC 2016-06-11 14:01:29
linf :
Общее
Полное имя : E:\ТОРРЕНТЫ\ЗАГРУЗКИ\Иллюзия обмана 2 (Original Motion Picture Soundtrack) (2016) (iTunes)\14. Thaddeus' Game.m4a
Формат : MPEG-4
Профиль формата : Apple audio with iTunes info
Идентификатор кодека : M4A (M4A /mp42/isom)
Размер файла : 4,93 Мбайт
Продолжительность : 2 м. 22 с.
Режим общего битрейта : Переменный
Общий поток : 289 Кбит/сек
Альбом : Now You See Me 2 (Original Motion Picture Soundtrack)
Альбом/Исполнитель : Brian Tyler
Часть/Положение : 1
Часть/Всего : 1
Трек : Thaddeus' Game
Трек/Положение : 14
Трек/Всего : 24
Исполнитель : Brian Tyler
Композитор : Brian Tyler
Издатель : Varese Sarabande Records
Жанр : Soundtrack
Дата записи : 2016
Дата кодирования : UTC 1988-06-13 12:10:59
Дата пометки : UTC 2016-06-11 14:01:13
Авторское право : ℗ 2016 Summit Entertainment, LLC, under exclusive license to Varese Sarabande Records
Обложка : Yes
Примечание : Release by sergey26.08 (https://vk.com/sergeibondarenko93)
Flavour : 2:256
WWW : https://vk.com/sergeibondarenko93
Аудио
Идентификатор : 1
Формат : AAC
Формат/Информация : Advanced Audio Codec
Профиль формата : LC
Идентификатор кодека : 40
Продолжительность : 2 м. 22 с.
Вид битрейта : Переменный
Битрейт : 256 Кбит/сек
Максимальный битрейт : 305 Кбит/сек
Каналы : 2 канала
Расположение каналов : Front: L R
Частота : 44,1 КГц
Частота кадров : 43,066 кадра/сек (1024 spf)
Метод сжатия : С потерями
Размер потока : 4,37 Мбайт (89%)
Язык : English
Дата кодирования : UTC 1988-06-13 12:10:59
Дата пометки : UTC 2016-06-11 14:01:13
linf :
Общее
Полное имя : E:\ТОРРЕНТЫ\ЗАГРУЗКИ\Иллюзия обмана 2 (Original Motion Picture Soundtrack) (2016) (iTunes)\15. Octa.m4a
Формат : MPEG-4
Профиль формата : Apple audio with iTunes info
Идентификатор кодека : M4A (M4A /mp42/isom)
Размер файла : 3,75 Мбайт
Продолжительность : 1 м. 36 с.
Режим общего битрейта : Переменный
Общий поток : 325 Кбит/сек
Альбом : Now You See Me 2 (Original Motion Picture Soundtrack)
Альбом/Исполнитель : Brian Tyler
Часть/Положение : 1
Часть/Всего : 1
Трек : Octa
Трек/Положение : 15
Трек/Всего : 24
Исполнитель : Brian Tyler
Композитор : Brian Tyler
Издатель : Varese Sarabande Records
Жанр : Soundtrack
Дата записи : 2016
Дата кодирования : UTC 2000-02-23 11:36:51
Дата пометки : UTC 2016-06-11 14:01:18
Авторское право : ℗ 2016 Summit Entertainment, LLC, under exclusive license to Varese Sarabande Records
Обложка : Yes
Примечание : Release by sergey26.08 (https://vk.com/sergeibondarenko93)
Flavour : 2:256
WWW : https://vk.com/sergeibondarenko93
Аудио
Идентификатор : 1
Формат : AAC
Формат/Информация : Advanced Audio Codec
Профиль формата : LC
Идентификатор кодека : 40
Продолжительность : 1 м. 36 с.
Вид битрейта : Переменный
Битрейт : 277 Кбит/сек
Номинальный битрейт : 256 Кбит/сек
Максимальный битрейт : 312 Кбит/сек
Каналы : 2 канала
Расположение каналов : Front: L R
Частота : 44,1 КГц
Частота кадров : 43,066 кадра/сек (1024 spf)
Метод сжатия : С потерями
Размер потока : 3,20 Мбайт (85%)
Язык : English
Дата кодирования : UTC 2000-02-23 11:36:51
Дата пометки : UTC 2016-06-11 14:01:18
linf :
Общее
Полное имя : E:\ТОРРЕНТЫ\ЗАГРУЗКИ\Иллюзия обмана 2 (Original Motion Picture Soundtrack) (2016) (iTunes)\16. United.m4a
Формат : MPEG-4
Профиль формата : Apple audio with iTunes info
Идентификатор кодека : M4A (M4A /mp42/isom)
Размер файла : 3,55 Мбайт
Продолжительность : 1 м. 36 с.
Режим общего битрейта : Переменный
Общий поток : 310 Кбит/сек
Альбом : Now You See Me 2 (Original Motion Picture Soundtrack)
Альбом/Исполнитель : Brian Tyler
Часть/Положение : 1
Часть/Всего : 1
Трек : United
Трек/Положение : 16
Трек/Всего : 24
Исполнитель : Brian Tyler
Композитор : Brian Tyler
Издатель : Varese Sarabande Records
Жанр : Soundtrack
Дата записи : 2016
Дата кодирования : UTC 2008-08-26 09:01:07
Дата пометки : UTC 2016-06-11 14:01:44
Авторское право : ℗ 2016 Summit Entertainment, LLC, under exclusive license to Varese Sarabande Records
Обложка : Yes
Примечание : Release by sergey26.08 (https://vk.com/sergeibondarenko93)
Flavour : 2:256
WWW : https://vk.com/sergeibondarenko93
Аудио
Идентификатор : 1
Формат : AAC
Формат/Информация : Advanced Audio Codec
Профиль формата : LC
Идентификатор кодека : 40
Продолжительность : 1 м. 36 с.
Вид битрейта : Переменный
Битрейт : 256 Кбит/сек
Максимальный битрейт : 318 Кбит/сек
Каналы : 2 канала
Расположение каналов : Front: L R
Частота : 44,1 КГц
Частота кадров : 43,066 кадра/сек (1024 spf)
Метод сжатия : С потерями
Размер потока : 3,00 Мбайт (85%)
Язык : English
Дата кодирования : UTC 2008-08-26 09:01:07
Дата пометки : UTC 2016-06-11 14:01:44
linf :
Общее
Полное имя : E:\ТОРРЕНТЫ\ЗАГРУЗКИ\Иллюзия обмана 2 (Original Motion Picture Soundtrack) (2016) (iTunes)\17. Deliverance.m4a
Формат : MPEG-4
Профиль формата : Apple audio with iTunes info
Идентификатор кодека : M4A (M4A /mp42/isom)
Размер файла : 8,31 Мбайт
Продолжительность : 4 м. 10 с.
Режим общего битрейта : Переменный
Общий поток : 279 Кбит/сек
Альбом : Now You See Me 2 (Original Motion Picture Soundtrack)
Альбом/Исполнитель : Brian Tyler
Часть/Положение : 1
Часть/Всего : 1
Трек : Deliverance
Трек/Положение : 17
Трек/Всего : 24
Исполнитель : Brian Tyler
Композитор : Brian Tyler
Издатель : Varese Sarabande Records
Жанр : Soundtrack
Дата записи : 2016
Дата кодирования : UTC 2025-08-31 03:49:39
Дата пометки : UTC 2016-06-11 14:02:16
Авторское право : ℗ 2016 Summit Entertainment, LLC, under exclusive license to Varese Sarabande Records
Обложка : Yes
Примечание : Release by sergey26.08 (https://vk.com/sergeibondarenko93)
Flavour : 2:256
WWW : https://vk.com/sergeibondarenko93
Аудио
Идентификатор : 1
Формат : AAC
Формат/Информация : Advanced Audio Codec
Профиль формата : LC
Идентификатор кодека : 40
Продолжительность : 4 м. 10 с.
Вид битрейта : Переменный
Битрейт : 256 Кбит/сек
Максимальный битрейт : 295 Кбит/сек
Каналы : 2 канала
Расположение каналов : Front: L R
Частота : 44,1 КГц
Частота кадров : 43,066 кадра/сек (1024 spf)
Метод сжатия : С потерями
Размер потока : 7,73 Мбайт (93%)
Язык : English
Дата кодирования : UTC 2025-08-31 03:49:39
Дата пометки : UTC 2016-06-11 14:02:16
linf :
Общее
Полное имя : E:\ТОРРЕНТЫ\ЗАГРУЗКИ\Иллюзия обмана 2 (Original Motion Picture Soundtrack) (2016) (iTunes)\18. Diversion Tactics.m4a
Формат : MPEG-4
Профиль формата : Apple audio with iTunes info
Идентификатор кодека : M4A (M4A /mp42/isom)
Размер файла : 9,84 Мбайт
Продолжительность : 4 м. 34 с.
Режим общего битрейта : Переменный
Общий поток : 301 Кбит/сек
Альбом : Now You See Me 2 (Original Motion Picture Soundtrack)
Альбом/Исполнитель : Brian Tyler
Часть/Положение : 1
Часть/Всего : 1
Трек : Diversion Tactics
Трек/Положение : 18
Трек/Всего : 24
Исполнитель : Brian Tyler
Композитор : Brian Tyler
Издатель : Varese Sarabande Records
Жанр : Soundtrack
Дата записи : 2016
Дата пометки : UTC 2016-06-11 14:02:31
Авторское право : ℗ 2016 Summit Entertainment, LLC, under exclusive license to Varese Sarabande Records
Обложка : Yes
Примечание : Release by sergey26.08 (https://vk.com/sergeibondarenko93)
Flavour : 2:256
WWW : https://vk.com/sergeibondarenko93
Аудио
Идентификатор : 1
Формат : AAC
Формат/Информация : Advanced Audio Codec
Профиль формата : LC
Идентификатор кодека : 40
Продолжительность : 4 м. 34 с.
Вид битрейта : Переменный
Битрейт : 288 Кбит/сек
Номинальный битрейт : 256 Кбит/сек
Максимальный битрейт : 305 Кбит/сек
Каналы : 2 канала
Расположение каналов : Front: L R
Частота : 44,1 КГц
Частота кадров : 43,066 кадра/сек (1024 spf)
Метод сжатия : С потерями
Размер потока : 9,26 Мбайт (94%)
Язык : English
Дата пометки : UTC 2016-06-11 14:02:31
linf :
Общее
Полное имя : E:\ТОРРЕНТЫ\ЗАГРУЗКИ\Иллюзия обмана 2 (Original Motion Picture Soundtrack) (2016) (iTunes)\19. Sibling Rivalry.m4a
Формат : MPEG-4
Профиль формата : Apple audio with iTunes info
Идентификатор кодека : M4A (M4A /mp42/isom)
Размер файла : 4,25 Мбайт
Продолжительность : 1 м. 55 с.
Режим общего битрейта : Переменный
Общий поток : 309 Кбит/сек
Альбом : Now You See Me 2 (Original Motion Picture Soundtrack)
Альбом/Исполнитель : Brian Tyler
Часть/Положение : 1
Часть/Всего : 1
Трек : Sibling Rivalry
Трек/Положение : 19
Трек/Всего : 24
Исполнитель : Brian Tyler
Композитор : Brian Tyler
Издатель : Varese Sarabande Records
Жанр : Soundtrack
Дата записи : 2016
Дата пометки : UTC 2016-06-11 14:02:24
Авторское право : ℗ 2016 Summit Entertainment, LLC, under exclusive license to Varese Sarabande Records
Обложка : Yes
Примечание : Release by sergey26.08 (https://vk.com/sergeibondarenko93)
Flavour : 2:256
WWW : https://vk.com/sergeibondarenko93
Аудио
Идентификатор : 1
Формат : AAC
Формат/Информация : Advanced Audio Codec
Профиль формата : LC
Идентификатор кодека : 40
Продолжительность : 1 м. 55 с.
Вид битрейта : Переменный
Битрейт : 256 Кбит/сек
Максимальный битрейт : 340 Кбит/сек
Каналы : 2 канала
Расположение каналов : Front: L R
Частота : 44,1 КГц
Частота кадров : 43,066 кадра/сек (1024 spf)
Метод сжатия : С потерями
Размер потока : 3,70 Мбайт (87%)
Язык : English
Дата пометки : UTC 2016-06-11 14:02:24
linf :
Общее
Полное имя : E:\ТОРРЕНТЫ\ЗАГРУЗКИ\Иллюзия обмана 2 (Original Motion Picture Soundtrack) (2016) (iTunes)\20. Bazaar Getaway.m4a
Формат : MPEG-4
Профиль формата : Apple audio with iTunes info
Идентификатор кодека : M4A (M4A /mp42/isom)
Размер файла : 4,82 Мбайт
Продолжительность : 2 м. 9 с.
Режим общего битрейта : Переменный
Общий поток : 313 Кбит/сек
Альбом : Now You See Me 2 (Original Motion Picture Soundtrack)
Альбом/Исполнитель : Brian Tyler
Часть/Положение : 1
Часть/Всего : 1
Трек : Bazaar Getaway
Трек/Положение : 20
Трек/Всего : 24
Исполнитель : Brian Tyler
Композитор : Brian Tyler
Издатель : Varese Sarabande Records
Жанр : Soundtrack
Дата записи : 2016
Дата пометки : UTC 2016-06-11 14:02:58
Авторское право : ℗ 2016 Summit Entertainment, LLC, under exclusive license to Varese Sarabande Records
Обложка : Yes
Примечание : Release by sergey26.08 (https://vk.com/sergeibondarenko93)
Flavour : 2:256
WWW : https://vk.com/sergeibondarenko93
Аудио
Идентификатор : 1
Формат : AAC
Формат/Информация : Advanced Audio Codec
Профиль формата : LC
Идентификатор кодека : 40
Продолжительность : 2 м. 9 с.
Вид битрейта : Переменный
Битрейт : 277 Кбит/сек
Номинальный битрейт : 256 Кбит/сек
Максимальный битрейт : 447 Кбит/сек
Каналы : 2 канала
Расположение каналов : Front: L R
Частота : 44,1 КГц
Частота кадров : 43,066 кадра/сек (1024 spf)
Метод сжатия : С потерями
Размер потока : 4,26 Мбайт (88%)
Язык : English
Дата пометки : UTC 2016-06-11 14:02:58
linf :
Общее
Полное имя : E:\ТОРРЕНТЫ\ЗАГРУЗКИ\Иллюзия обмана 2 (Original Motion Picture Soundtrack) (2016) (iTunes)\21. The New Horseman.m4a
Формат : MPEG-4
Профиль формата : Apple audio with iTunes info
Идентификатор кодека : M4A (M4A /mp42/isom)
Размер файла : 2,67 Мбайт
Продолжительность : 1 м. 5 с.
Режим общего битрейта : Переменный
Общий поток : 344 Кбит/сек
Альбом : Now You See Me 2 (Original Motion Picture Soundtrack)
Альбом/Исполнитель : Brian Tyler
Часть/Положение : 1
Часть/Всего : 1
Трек : The New Horseman
Трек/Положение : 21
Трек/Всего : 24
Исполнитель : Brian Tyler
Композитор : Brian Tyler
Издатель : Varese Sarabande Records
Жанр : Soundtrack
Дата записи : 2016
Дата пометки : UTC 2016-06-11 14:02:55
Авторское право : ℗ 2016 Summit Entertainment, LLC, under exclusive license to Varese Sarabande Records
Обложка : Yes
Примечание : Release by sergey26.08 (https://vk.com/sergeibondarenko93)
Flavour : 2:256
WWW : https://vk.com/sergeibondarenko93
Аудио
Идентификатор : 1
Формат : AAC
Формат/Информация : Advanced Audio Codec
Профиль формата : LC
Идентификатор кодека : 40
Продолжительность : 1 м. 5 с.
Вид битрейта : Переменный
Битрейт : 274 Кбит/сек
Номинальный битрейт : 256 Кбит/сек
Максимальный битрейт : 306 Кбит/сек
Каналы : 2 канала
Расположение каналов : Front: L R
Частота : 44,1 КГц
Частота кадров : 43,066 кадра/сек (1024 spf)
Метод сжатия : С потерями
Размер потока : 2,13 Мбайт (80%)
Язык : English
Дата пометки : UTC 2016-06-11 14:02:55
linf :
Общее
Полное имя : E:\ТОРРЕНТЫ\ЗАГРУЗКИ\Иллюзия обмана 2 (Original Motion Picture Soundtrack) (2016) (iTunes)\22. See You in 3 to 5.m4a
Формат : MPEG-4
Профиль формата : Apple audio with iTunes info
Идентификатор кодека : M4A (M4A /mp42/isom)
Размер файла : 3,90 Мбайт
Продолжительность : 1 м. 41 с.
Режим общего битрейта : Переменный
Общий поток : 323 Кбит/сек
Альбом : Now You See Me 2 (Original Motion Picture Soundtrack)
Альбом/Исполнитель : Brian Tyler
Часть/Положение : 1
Часть/Всего : 1
Трек : See You in 3 to 5
Трек/Положение : 22
Трек/Всего : 24
Исполнитель : Brian Tyler
Композитор : Brian Tyler
Издатель : Varese Sarabande Records
Жанр : Soundtrack
Дата записи : 2016
Дата пометки : UTC 2016-06-11 14:03:01
Авторское право : ℗ 2016 Summit Entertainment, LLC, under exclusive license to Varese Sarabande Records
Обложка : Yes
Примечание : Release by sergey26.08 (https://vk.com/sergeibondarenko93)
Flavour : 2:256
WWW : https://vk.com/sergeibondarenko93
Аудио
Идентификатор : 1
Формат : AAC
Формат/Информация : Advanced Audio Codec
Профиль формата : LC
Идентификатор кодека : 40
Продолжительность : 1 м. 41 с.
Вид битрейта : Переменный
Битрейт : 277 Кбит/сек
Номинальный битрейт : 256 Кбит/сек
Максимальный битрейт : 309 Кбит/сек
Каналы : 2 канала
Расположение каналов : Front: L R
Частота : 44,1 КГц
Частота кадров : 43,066 кадра/сек (1024 spf)
Метод сжатия : С потерями
Размер потока : 3,35 Мбайт (86%)
Язык : English
Дата пометки : UTC 2016-06-11 14:03:01
linf :
Общее
Полное имя : E:\ТОРРЕНТЫ\ЗАГРУЗКИ\Иллюзия обмана 2 (Original Motion Picture Soundtrack) (2016) (iTunes)\23. The Big Finish.m4a
Формат : MPEG-4
Профиль формата : Apple audio with iTunes info
Идентификатор кодека : M4A (M4A /mp42/isom)
Размер файла : 8,63 Мбайт
Продолжительность : 3 м. 56 с.
Режим общего битрейта : Переменный
Общий поток : 306 Кбит/сек
Альбом : Now You See Me 2 (Original Motion Picture Soundtrack)
Альбом/Исполнитель : Brian Tyler
Часть/Положение : 1
Часть/Всего : 1
Трек : The Big Finish
Трек/Положение : 23
Трек/Всего : 24
Исполнитель : Brian Tyler
Композитор : Brian Tyler
Издатель : Varese Sarabande Records
Жанр : Soundtrack
Дата записи : 2016
Дата кодирования : UTC 1976-03-23 02:37:07
Дата пометки : UTC 2016-06-11 14:04:02
Авторское право : ℗ 2016 Summit Entertainment, LLC, under exclusive license to Varese Sarabande Records
Обложка : Yes
Примечание : Release by sergey26.08 (https://vk.com/sergeibondarenko93)
Flavour : 2:256
WWW : https://vk.com/sergeibondarenko93
Аудио
Идентификатор : 1
Формат : AAC
Формат/Информация : Advanced Audio Codec
Профиль формата : LC
Идентификатор кодека : 40
Продолжительность : 3 м. 56 с.
Вид битрейта : Переменный
Битрейт : 288 Кбит/сек
Номинальный битрейт : 256 Кбит/сек
Максимальный битрейт : 305 Кбит/сек
Каналы : 2 канала
Расположение каналов : Front: L R
Частота : 44,1 КГц
Частота кадров : 43,066 кадра/сек (1024 spf)
Метод сжатия : С потерями
Размер потока : 8,05 Мбайт (93%)
Язык : English
Дата кодирования : UTC 1976-03-23 02:37:07
Дата пометки : UTC 2016-06-11 14:04:02
linf :
Общее
Полное имя : E:\ТОРРЕНТЫ\ЗАГРУЗКИ\Иллюзия обмана 2 (Original Motion Picture Soundtrack) (2016) (iTunes)\24. Finale.m4a
Формат : MPEG-4
Профиль формата : Apple audio with iTunes info
Идентификатор кодека : M4A (M4A /mp42/isom)
Размер файла : 5,61 Мбайт
Продолжительность : 2 м. 39 с.
Режим общего битрейта : Переменный
Общий поток : 295 Кбит/сек
Альбом : Now You See Me 2 (Original Motion Picture Soundtrack)
Альбом/Исполнитель : Brian Tyler
Часть/Положение : 1
Часть/Всего : 1
Трек : Finale
Трек/Положение : 24
Трек/Всего : 24
Исполнитель : Brian Tyler
Композитор : Brian Tyler
Издатель : Varese Sarabande Records
Жанр : Soundtrack
Дата записи : 2016
Дата кодирования : UTC 1994-04-20 06:06:11
Дата пометки : UTC 2016-06-11 14:04:00
Авторское право : ℗ 2016 Summit Entertainment, LLC, under exclusive license to Varese Sarabande Records
Обложка : Yes
Примечание : Release by sergey26.08 (https://vk.com/sergeibondarenko93)
Flavour : 2:256
WWW : https://vk.com/sergeibondarenko93
Аудио
Идентификатор : 1
Формат : AAC
Формат/Информация : Advanced Audio Codec
Профиль формата : LC
Идентификатор кодека : 40
Продолжительность : 2 м. 39 с.
Вид битрейта : Переменный
Битрейт : 256 Кбит/сек
Максимальный битрейт : 303 Кбит/сек
Каналы : 2 канала
Расположение каналов : Front: L R
Частота : 44,1 КГц
Частота кадров : 43,066 кадра/сек (1024 spf)
Метод сжатия : С потерями
Размер потока : 5,05 Мбайт (90%)
Язык : English
Дата кодирования : UTC 1994-04-20 06:06:11
Дата пометки : UTC 2016-06-11 14:04:00
linf :

Спектрограмма&#58;

         
-

_________________

Создавая "Новую папку", не считайте себя Создателем - это право Вам дано Админом


Other forum [Profile] [PM]
Display posts from previous:    
Reply to topic

The time now is: Today 06:54

All times are GMT + 3 Hours



You cannot post new topics in this forum
You cannot reply to topics in this forum
You cannot edit your posts in this forum
You cannot delete your posts in this forum
You cannot vote in polls in this forum
You cannot attach files in this forum
You cannot download files in this forum