Сегодня идет свободное скачивание без начисления Download

Разборка в Маниле / Showdown in Manila (Марк Дакаскос) [2016 г., боевик, HDRip-AVC,КПК]

Ответить на тему
 
Автор
Сообщение

bard0962 ®

Пол:

Стаж: 5 лет

Сообщений: 15

Торрент-статистика

Пост 21-Мар-2016 18:00

[Цитировать]

Разборка в Маниле / Showdown in Manila-- Год выпуска: 2016
Страна: США, Россия
Жанр: боевик
Продолжительность: 01:25:57
Перевод: Профессиональный(дублированный)-Режиссер: Марк Дакаскос-В ролях: Александр Невский, Каспер Ван Дин, Кэри-Хироюки Тагава, Марк Дакаскос, Маттиас Хьюз, Синтия Ротрок, Дон «Дракон» Уилсон, Оливье Грюнер, Джейк Макапагал, Иса Кальсадо-Описание: Частные детективы Ник и Чарли живут и работают в Маниле. Расследование убийства выводит их на след международного террориста по кличке «Призрак», лагерь которого находится в филиппинских джунглях. Не доверяя полиции, Ник и Чарли собирают небольшую команду смельчаков и отправляются в логово «Призрака», которое охраняет армия наемников-головорезов...--Качество: HDRip-AVC
Формат: MPEG-4
Видео: x264,640 x 360 pixels,600 Kbps
Аудио: AAC,128 Kbps,48.0 KHz--

Медиа инфо

General
Complete name : C:\Users\влад\Videos\Manila.mp4
Format : MPEG-4
Format profile : Base Media
Codec ID : isom (isom/iso2/avc1/mp41)
File size : 449 MiB
Duration : 1h 25mn
Overall bit rate : 730 Kbps
Encoded date : UTC 2016-03-21 12:36:54
Tagged date : UTC 2016-03-21 12:36:54
Writing application : Lavf57.28.101
Video #1
ID : 1
Format : AVC
Format/Info : Advanced Video Codec
Format profile : Baseline@L3
Format settings, CABAC : No
Format settings, ReFrames : 1 frame
Codec ID : avc1
Codec ID/Info : Advanced Video Coding
Duration : 1h 25mn
Bit rate : 600 Kbps
Width : 640 pixels
Height : 360 pixels
Display aspect ratio : 1.85:1
Original display aspect ratio : 1.85:1
Frame rate mode : Constant
Frame rate : 25.000 fps
Color space : YUV
Chroma subsampling : 4:2:0
Bit depth : 8 bits
Scan type : Progressive
Bits/(Pixel*Frame) : 0.104
Stream size : 367 MiB (82%)
Writing library : x264 core 148 r2665
Encoding settings : cabac=0 / ref=1 / deblock=1:0:0 / analyse=0x1:0x131 / me=hex / subme=5 / psy=1 / psy_rd=1.00:0.00 / mixed_ref=0 / me_range=16 / chroma_me=1 / trellis=0 / 8x8dct=0 / cqm=0 / deadzone=21,11 / fast_pskip=1 / chroma_qp_offset=0 / threads=3 / lookahead_threads=1 / sliced_threads=0 / nr=0 / decimate=1 / interlaced=0 / bluray_compat=0 / constrained_intra=0 / bframes=0 / weightp=0 / keyint=250 / keyint_min=25 / scenecut=40 / intra_refresh=0 / rc_lookahead=40 / rc=abr / mbtree=1 / bitrate=600 / ratetol=1.0 / qcomp=0.60 / qpmin=10 / qpmax=69 / qpstep=4 / vbv_maxrate=1500 / vbv_bufsize=1500 / nal_hrd=none / filler=0 / ip_ratio=1.40 / aq=1:1.00
Encoded date : UTC 2016-03-21 12:36:54
Tagged date : UTC 2016-03-21 12:36:54
Audio #2
ID : 2
Format : AAC
Format/Info : Advanced Audio Codec
Format profile : LC
Codec ID : 40
Duration : 1h 25mn
Duration_LastFrame : -11ms
Bit rate mode : Constant
Bit rate : 128 Kbps
Channel(s) : 2 channels
Channel positions : Front: L R
Sampling rate : 48.0 KHz
Frame rate : 46.875 fps (1024 spf)
Compression mode : Lossy
Stream size : 78.6 MiB (18%)
Default : Yes
Alternate group : 1
Encoded date : UTC 2016-03-21 12:36:54
Tagged date : UTC 2016-03-21 12:36:54

Скриншоты

       

_________________


Последний раз редактировалось: bard0962 (2016-03-21 21:32), всего редактировалось 1 раз
Вне форума [Профиль] [ЛС]
Показать сообщения:    
Ответить на тему

Текущее время: Сегодня 13:35

Часовой пояс: GMT + 3



Вы не можете начинать темы
Вы не можете отвечать на сообщения
Вы не можете редактировать свои сообщения
Вы не можете удалять свои сообщения
Вы не можете голосовать в опросах
Вы не можете прикреплять файлы к сообщениям
Вы не можете скачивать файлы