Today is a free download without charge Download

Все умрут, а я останусь / Everybody Dies But Me (Валерия Гай Германика) [2008 г., драма, DVDRip]

Reply to topic
 
Author
Message

Region_13 ®

Gender:

Longevity: 5 years 8 months

Posts: 783

Location: Мальдивы

Торрент-статистика

Post 30-Jan-2016 21:31

[Quote]

Все умрут, а я останусь / Everybody Dies But Me
Год выпуска: 2008
Страна: Россия
Жанр: драма
Продолжительность: 80 мин. / 01:20
Перевод: Не требуется
Режиссер: Валерия Гай Германика
Продюссер: Дарья Хлёсткина, Игорь Толстунов
Сценарий: Юрий Клавдиев, Александр Родионов
Бюджет: $235 432
Премьера в мире: 21 мая 2008
зрителям, достигшим 18 лет


Описание: Жизнь никогда не бывает легкой, особенно когда тебе четырнадцать лет. Но некоторым подросткам приходится иметь дело не только со своими внутренними переживаниями и комплексами и юношеским максимализмом, но и с жестокой окружающей действительностью.
Три девятиклассницы — Катя, Вика и Жанна — самые обыкновенные девчонки из спального района Москвы. В понедельник они узнают, что в субботу в школе будет дискотека, первая в новом учебном году. Всю неделю они проживают, готовясь к этому главному в их жизни событию. Но Катя нагрубила учительнице — и дискотеку могут отменить…
Всю неделю девочки пытаются найти общий язык со своими родителями, учителями, одноклассниками и в конечном счете друг с другом. Катя остается дома, а Вика и Жанна решают пойти, ведь они так долго мечтали об этом дне. Неожиданно для всех на дискотеке появляется и Катя. И этот вечер, которого они так ждали, принесет много неожиданностей, и каждую из героинь ждет еще один удар судьбы — тот самый, после которого заканчивается детство и начинается взрослая жизнь.

Качество: DVDRip
Формат: AVI
Видео кодек: XviD
Аудио кодек: AC3
Видео: 704x400 (1.76:1), 25 fps, XviD build 56 ~2379 kbps avg, 0.34 bit/pixel
Аудио: AC3, 48000 Гц, 2 channels, 192 kbit/s                        

MediaInfo

General
Complete name : D:\Релизы\Vse.umrut,a.ja.ostanus.2008.avi
Format : AVI
Format/Info : Audio Video Interleave
File size : 1.45 GiB
Duration : 1h 20mn
Overall bit rate : 2 582 Kbps
Director : zim2001
Writing application : VirtualDubMod 1.5.10.2 (build 2540/release)
Video
ID : 0
Format : MPEG-4 Visual
Format profile : Advanced Simple@L5
Format settings, BVOP : 2
Format settings, QPel : No
Format settings, GMC : No warppoints
Format settings, Matrix : Custom
Codec ID : XVID
Codec ID/Hint : XviD
Duration : 1h 20mn
Bit rate : 2 380 Kbps
Width : 704 pixels
Height : 400 pixels
Display aspect ratio : 16:9
Frame rate : 25.000 fps
Color space : YUV
Chroma subsampling : 4:2:0
Bit depth : 8 bits
Scan type : Progressive
Compression mode : Lossy
Bits/(Pixel*Frame) : 0.338
Stream size : 1.34 GiB (92%)
Writing library : XviD 56
Audio
ID : 1
Format : AC-3
Format/Info : Audio Coding 3
Mode extension : CM (complete main)
Format settings, Endianness : Big
Codec ID : 2000
Duration : 1h 20mn
Bit rate mode : Constant
Bit rate : 192 Kbps
Channel count : 2 channels
Channel positions : Front: L R
Sampling rate : 48.0 KHz
Bit depth : 16 bits
Compression mode : Lossy
Stream size : 111 MiB (7%)
Alignment : Split accross interleaves
Interleave, duration : 40 ms (1.00 video frame)
Interleave, preload duration : 500 ms

_________________
Other forum [Profile] [PM]
Display posts from previous:    
Reply to topic

The time now is: Today 22:12

All times are GMT + 3 Hours



You cannot post new topics in this forum
You cannot reply to topics in this forum
You cannot edit your posts in this forum
You cannot delete your posts in this forum
You cannot vote in polls in this forum
You cannot attach files in this forum
You cannot download files in this forum