Today is a free download without charge Download

Спeциaлист | Oсoбeннoсти подгoтoвки oблaчнoй инфрaструктуры средствами Microsoft System Center 2012R2 Virtual Machine Manager (2015) PCRec [H.264/720p]

Reply to topic
 
Author
Message

moralis ®

Gender:

Longevity: 4 years

Posts: 1605

Торрент-статистика

Post 19-Dec-2015 12:27

[Quote]

Спeциaлист
Oсoбeннoсти подгoтoвки oблaчнoй инфрaструктуры средствами Microsoft System Center 2012R2 Virtual Machine Manager
- Автор (режиссер): Сoкoлoв Михaил Юрьeвич
Жанр: Облачная инфраструктура
Описание:
Интересуетесь технологиями виртуализации Microsoft для корпоративных сред? 22 ноября приглашаем всех желающих на бесплатный вебинар учебного центра «Специалист» при МГТУ имени Н.Э. Баумана «Особенности подготовки облачной инфраструктуры средствами Microsoft System Center 2012R2 Virtual Machine Manager».
Занятие ориентировано на ИТ-специалистов, отвечающих за разработку, внедрение, управление и поддержку виртуализированной инфраструктуры. Вебинар будет также полезен тем, кто принимает решения по выбору платформы виртуализации и инфраструктуры управления в ЦОДах.
В рамках семинара будут рассматриваться новые технологии и возможности, задействованные в продукте SC2012r2 VMM и актуальные для создания частного облака. Преподаватель доступно расскажет и о связанной с ними терминологии, которая часто вызывает вопросы у специалистов. Кроме того, на вебинаре будет дан обзор одного из авторизованных курсов Центра, посвященных System Center Virtual Machine Manager. Вы получите рекомендации по дальнейшему обучению и узнаете, как проходить сертификацию.

На занятии будут освящены вопросы:

  • Что такое SC2012r2 VMM и как он лицензируется?
  • Из каких компонентов состоит инфраструктура VMM?
  • Какие возможности существуют для оптимизации производительности и обеспечения отказоустойчивости?
  • Что такое Software Defined Networks, Converged Networking, Logical Networks, Virtual Machine Networks?
Продолжительность: 01:38:19
Качество видео: PCRec
Видео: AVC/H.264, 1280x720, ~485 kbps
Аудио: AAC, 2 ch, ~192 kbps

Mediainfo:

Код:
Формат                                   : MPEG-4
Профиль формата                          : Base Media / Version 2
Идентификатор кодека                     : mp42
Размер файла                             : 478 Мбайт
Продолжительность                        : 1 ч. 38 м.
Режим общего битрейта                    : Переменный
Общий поток                              : 680 Кбит/сек
Дата кодирования                         : UTC 2015-12-15 12:48:44
Дата пометки                             : UTC 2015-12-15 12:48:44
gsst                                     : 0
gstd                                     : 5899423
gssd                                     : B4A7DD102
gshh                                     : r2---sn-5hn7su7e.googlevideo.com
Видео
Идентификатор                            : 1
Формат                                   : AVC
Формат/Информация                        : Advanced Video Codec
Профиль формата                          : [url=mailto:High@L3.1]High@L3.1[/url]
Параметр CABAC формата                   : Да
Параметр ReFrames формата                : 1 кадр
Идентификатор кодека                     : avc1
Идентификатор кодека/Информация          : Advanced Video Coding
Продолжительность                        : 1 ч. 38 м.
Битрейт                                  : 485 Кбит/сек
Максимальный битрейт                     : 2565 Кбит/сек
Ширина                                   : 1280 пикселей
Высота                                   : 720 пикселей
Соотношение сторон                       : 16:9
Режим частоты кадров                     : Постоянный
Частота кадров                           : 30,000 кадров/сек
Цветовое пространство                    : YUV
Субдискретизация насыщенности            : 4:2:0
Битовая глубина                          : 8 бит
Тип развёртки                            : Прогрессивная
Бит/(Пиксели*Кадры)                      : 0.018
Размер потока                            : 341 Мбайт (71%)
Дата пометки                             : UTC 2015-12-15 12:49:38
Цветовой диапазон                        : Limited
Основные цвета                           : BT.709
Характеристики трансфера                 : BT.709
Коэффициенты матрицы                     : BT.709
Аудио
Идентификатор                            : 2
Формат                                   : AAC
Формат/Информация                        : Advanced Audio Codec
Профиль формата                          : LC
Идентификатор кодека                     : 40
Продолжительность                        : 1 ч. 38 м.
Вид битрейта                             : Переменный
Битрейт                                  : 192 Кбит/сек
Максимальный битрейт                     : 204 Кбит/сек
Каналы                                   : 2 канала
Расположение каналов                     : Front: L R
Частота                                  : 44,1 КГц
Метод сжатия                             : С потерями
Размер потока                            : 135 Мбайт (28%)
Заголовок                                : IsoMedia File Produced by Google, 5-11-2011
Язык                                     : English
Дата кодирования                         : UTC 2015-12-15 12:49:06
Дата пометки                             : UTC 2015-12-15 12:49:38
Скриншоты:
     
Other forum [Profile] [PM]
Display posts from previous:    
Reply to topic

The time now is: Today 05:04

All times are GMT + 3 Hours



You cannot post new topics in this forum
You cannot reply to topics in this forum
You cannot edit your posts in this forum
You cannot delete your posts in this forum
You cannot vote in polls in this forum
You cannot attach files in this forum
You cannot download files in this forum