Today is a free download without charge Download

Человек у окна / Man at His Window (Дмитрий Месхиев) [2009 г., мелодрама, комедия, SATRip]

Reply to topic
 
Author
Message

Region_13 ®

Gender:

Longevity: 5 years 9 months

Posts: 783

Location: Мальдивы

Торрент-статистика

Post 30-Nov-2015 20:12

[Quote]

Человек у окна / Man at His Window
Год выпуска: 2009
Страна: Россия
Жанр: мелодрама, комедия
Продолжительность: 96 мин. / 01:36
Перевод: Не требуется
Режиссер: Дмитрий Месхиев
Продюссер: Сергей Шумаков, Сергей Мелькумов, Дмитрий Месхиев
Сценарий: Илья Тилькин
Бюджет: неизвестно
Премьера в мире: 3 ноября 2010
зрителям, достигшим 16 лет


В ролях: Юрий Стоянов, Кристина Кузьмина, Сергей Гармаш, Мария Звонарева, Владимир Вдовиченков, Андрей Мерзликин, Евгения Добровольская
Описание: Артист Александр Дронов, которого все зовут Шурой, в свои пятьдесят с хвостиком, казалось бы, не добился ничего, что приносило бы ему счастье. Он не состоялся как актер — уходит из театра еще до поклонов; не состоялся как муж и отец — сын далеко, а жена сосуществует с ним только по привычке; не состоялся и как друг — единственный близкий ему человек, тот, с кем он делит гримерку, — презирает Шуру. Немолодой, неуспешный, некрасивый… и все же, у Дронова есть свое дело. Он — человек у окна. он может вложить в уста людей, за которыми наблюдает, правильные слова, направить их в правильном направлении — и изменить их судьбы. Он может многое и ничего не может поделать с самим собой.
Качество: SATRip
Формат: AVI
Видео кодек: XviD
Аудио кодек: AC3
Видео: 704x304 (2.32:1), 25 fps, XviD build 50 ~918 kbps avg, 0.17 bit/pixel
Аудио: 48 kHz, MPEG Layer 3, 2 ch, ~128.00 kbps avg

Скриншоты

               

Mediainfo

Общее
Полное имя : E:\Chelovek_u_okna.avi
Формат : AVI
Формат/Информация : Audio Video Interleave
Размер файла : 700 Мбайт
Продолжительность : 1 ч. 32 м.
Общий поток : 1054 Кбит/сек
Программа кодирования : VirtualDubMod 1.5.4.1 (build 2178/release)
Библиотека кодирования : VirtualDubMod build 2178/release
Видео
Идентификатор : 0
Формат : MPEG-4 Visual
Профиль формата : Advanced Simple@L5
Параметр BVOP формата : 1
Параметр QPel формата : Нет
Параметр GMC формата : Без точки перехода
Параметр матрицы формата : Выборочная
Идентификатор кодека : XVID
Идентификатор кодека/Подсказка : XviD
Продолжительность : 1 ч. 32 м.
Битрейт : 918 Кбит/сек
Ширина : 704 пикселя
Высота : 304 пикселя
Соотношение сторон : 2,35:1
Частота кадров : 25,000 кадров/сек
Цветовое пространство : YUV
Субдискретизация насыщенности : 4:2:0
Битовая глубина : 8 бит
Тип развёртки : Прогрессивная
Метод сжатия : С потерями
Бит/(Пиксели*Кадры) : 0.172
Размер потока : 610 Мбайт (87%)
Библиотека кодирования : XviD 1.2.1 (UTC 2008-12-04)
Аудио
Идентификатор : 1
Формат : MPEG Audio
Версия формата : Version 1
Профиль формата : Layer 3
Режим : Joint stereo
Расширение режима : MS Stereo
Идентификатор кодека : 55
Идентификатор кодека/Подсказка : MP3
Продолжительность : 1 ч. 32 м.
Вид битрейта : Постоянный
Битрейт : 128 Кбит/сек
Каналы : 2 канала
Частота : 48,0 КГц
Метод сжатия : С потерями
Размер потока : 85,0 Мбайт (12%)
Выравнивание : Соединение по промежуткам
Продолжительность промежутка : 80 мс. (2,00 видеокадра)
Время предзагрузки промежутка : 504 мс.
Библиотека кодирования : LAME3.98r
Настройки программы : -m j -V 4 -q 2 -lowpass 17 -b 128

_________________
Other forum [Profile] [PM]
Display posts from previous:    
Reply to topic

The time now is: Today 04:14

All times are GMT + 3 Hours



You cannot post new topics in this forum
You cannot reply to topics in this forum
You cannot edit your posts in this forum
You cannot delete your posts in this forum
You cannot vote in polls in this forum
You cannot attach files in this forum
You cannot download files in this forum