Today is a free download without charge Download

Афганский Излом / Afganskiy izlom (Владимир Бортко) [1991 г., драма, военный, DVDRip]

Reply to topic
 
Author
Message

Region_13 ®

Gender:

Longevity: 5 years 4 months

Posts: 784

Location: Мальдивы

Торрент-статистика

Post 20-Nov-2015 19:11

[Quote]

Афганский Излом / Afganskiy izlom
Год выпуска: 1991
Страна: Россия
Жанр: драма, военный
Продолжительность: 140 мин. / 02:20
Перевод: Не требуется
Режиссер: Владимир Бортко
Сценарий: Леонид Богачук, Александр Червинский, Михаил Лещинский
Бюджет: Неизвестно
Премьера в мире: 1 апреля 1992
зрителям, достигшим 16 лет


В ролях: Микеле Плачидо(озвучивает Олег Янковский), Татьяна Догилева, Михаил Жигалов, Филипп Янковский, Алексей Серебряков, Нина Русланова, Николай Устинов, Владимир Ерёмин, Михаил Трухин, Ренат Ибрагимов, Хашим Рахимов, Кием Якуб, Артур Уваров, Юрий Кузнецов, Виктор Проскурин.
Описание: События фильма разворачиваются накануне вывода советских войск из Афганистана. И, казалось бы, можно уже не волноваться за судьбу наших ребят, но… война продолжается.
В подразделение десантников, которым командует майор Бандура, направляется сын высокопоставленного военного. Причина его прибытия накануне вывода войск понятна всем: парню необходимо успеть «поучаствовать» в боевых действиях и заработать награды…

Доп. информация: Выпущено: "Ленфильм"/Русское видео/Clemi Cinematografica S.r.l.,СССР-Италия.
Качество: DVDRip
Формат: AVI
Видео кодек: DivX
Аудио кодек: AC3
Видео: 720x544, 25 fps, ~2477 kbps.
Аудио: 48 kHz, AC3 Dolby Digital, 2/0 (L,R) ch, ~192.00 kbps.

Скриншоты

                     

MI

Полное имя : E:\Afganskiy_izlom.AVI
Формат : AVI
Формат/Информация : Audio Video Interleave
Профиль формата : OpenDML
Размер файла : 2,48 Гбайт
Продолжительность : 2 ч. 12 м.
Общий поток : 2677 Кбит/сек
Видео
Идентификатор : 0
Формат : MPEG-4 Visual
Параметр BVOP формата : Да
Параметр QPel формата : Нет
Параметр GMC формата : Без точки перехода
Параметр матрицы формата : Default (H.263)
Идентификатор кодека : DX50
Идентификатор кодека/Подсказка : DivX 5
Продолжительность : 2 ч. 12 м.
Битрейт : 2480 Кбит/сек
Ширина : 720 пикселей
Высота : 544 пикселя
Соотношение сторон : 4:3
Частота кадров : 25,000 кадров/сек
Цветовое пространство : YUV
Субдискретизация насыщенности : 4:2:0
Битовая глубина : 8 бит
Тип развёртки : Прогрессивная
Метод сжатия : С потерями
Бит/(Пиксели*Кадры) : 0.253
Размер потока : 2,29 Гбайт (93%)
Библиотека кодирования : DivX 6.8.5 (UTC 2009-08-20)
Аудио
Идентификатор : 1
Формат : AC-3
Формат/Информация : Audio Coding 3
Расширение режима : CM (complete main)
Параметр Endianness формата : Big
Идентификатор кодека : 2000
Продолжительность : 2 ч. 12 м.
Вид битрейта : Постоянный
Битрейт : 192 Кбит/сек
Каналы : 2 канала
Расположение каналов : Front: L R
Частота : 48,0 КГц
Метод сжатия : С потерями
Размер потока : 182 Мбайт (7%)
Выравнивание : Разделение по промежуткам
Продолжительность промежутка : 1000 мс. (25,00 видеокадров)

_________________
Other forum [Profile] [PM]
Display posts from previous:    
Reply to topic

The time now is: Today 21:18

All times are GMT + 3 Hours



You cannot post new topics in this forum
You cannot reply to topics in this forum
You cannot edit your posts in this forum
You cannot delete your posts in this forum
You cannot vote in polls in this forum
You cannot attach files in this forum
You cannot download files in this forum