Сегодня идет свободное скачивание без начисления Download

Облако Рай / Oblako-ray (Николай Досталь) [1990 г., комедия, драма, DVDRip]

Ответить на тему
 
Автор
Сообщение

Region_13 ®

Пол:

Стаж: 4 года 8 месяцев

Сообщений: 849

Откуда: Мальдивы

Торрент-статистика

Пост 16-Ноя-2015 17:51

[Цитировать]

Облако Рай / Oblako-ray
Год выпуска: 1990
Страна: Россия
Жанр: комедия, драма
Продолжительность: 76 мин. / 01:16
Перевод: Не требуется
Режиссер: Николай Досталь
Сценарий: Георгий Николаев
Бюджет: Неизвестно
Премьера в мире: 4 декабря 1991
зрителям, достигшим 16 лет


В ролях: Алла Клюка, Андрей Жигалов, Владимир Толоконников, Лев Борисов, Сергей Баталов, Зинаида Воркуль, Александр Числов, Ирина Розанова
Описание: Скучная, тусклая однообразность провинциального городка. Чтобы обратить на себя внимание, молодой парень Николай "ляпнул", что уезжает к другу на Дальний восток. Что тут началось! И смех, и грех. Весь город принимает участие в сборах. Да с каким грандиозным размахом, словно едут всем городом. И даже чистосердечное признание Николая, что все это вранье, да и друга-то нет, не могут никого остановить в торжественной обстановке и Николая с музыкой выпроваживают из города...
Качество: DVDRip
Формат: AVI
Видео кодек: DivX
Аудио кодек: AC3
Видео: 688x512 (1.34:1), 25 fps, DivX Codec 5.2.1 alpha ~2100 kbps avg
Аудио: 48 kHz, AC3 Dolby Digital, 3/2 (L,C,R,l,r) + LFE ch, ~448.00 kbps avg

Скриншоты

           

MI

Общее
Полное имя : E:\Oblako_ray.avi
Формат : AVI
Формат/Информация : Audio Video Interleave
Размер файла : 1,36 Гбайт
Продолжительность : 1 ч. 16 м.
Общий поток : 2559 Кбит/сек
Программа кодирования : VirtualDubModRus 1.5.10.2 (build 2542/release)
Библиотека кодирования : VirtualDubMod build 2542/release
Видео
Идентификатор : 0
Формат : MPEG-4 Visual
Параметр BVOP формата : 1
Параметр QPel формата : Нет
Параметр GMC формата : Без точки перехода
Параметр матрицы формата : Default (H.263)
Режим смешивания : Сжатый битовый поток
Идентификатор кодека : DX50
Идентификатор кодека/Подсказка : DivX 5
Продолжительность : 1 ч. 16 м.
Битрейт : 2101 Кбит/сек
Ширина : 688 пикселей
Высота : 512 пикселей
Соотношение сторон : 4:3
Частота кадров : 25,000 кадров/сек
Цветовое пространство : YUV
Субдискретизация насыщенности : 4:2:0
Битовая глубина : 8 бит
Тип развёртки : Прогрессивная
Метод сжатия : С потерями
Бит/(Пиксели*Кадры) : 0.239
Размер потока : 1,12 Гбайт (82%)
Библиотека кодирования : DivX 5.2.1 Alpha (UTC 2004-09-08)
Аудио
Идентификатор : 1
Формат : AC-3
Формат/Информация : Audio Coding 3
Расширение режима : CM (complete main)
Параметр Endianness формата : Big
Идентификатор кодека : 2000
Продолжительность : 1 ч. 16 м.
Вид битрейта : Постоянный
Битрейт : 448 Кбит/сек
Каналы : 6 каналов
Расположение каналов : Front: L C R, Side: L R, LFE
Частота : 48,0 КГц
Метод сжатия : С потерями
Размер потока : 245 Мбайт (18%)
Выравнивание : Соединение по промежуткам
Продолжительность промежутка : 40 мс. (1,00 видеокадр)
Время предзагрузки промежутка : 512 мс.

_________________
Вне форума [Профиль] [ЛС]
Показать сообщения:    
Ответить на тему

Текущее время: Сегодня 16:42

Часовой пояс: GMT + 3



Вы не можете начинать темы
Вы не можете отвечать на сообщения
Вы не можете редактировать свои сообщения
Вы не можете удалять свои сообщения
Вы не можете голосовать в опросах
Вы не можете прикреплять файлы к сообщениям
Вы не можете скачивать файлы