Today is a free download without charge Download

НЕ РОДИСЬ КРАСИВЫМ / Not Born Beautiful (Максим Паперник) [2008 г., мелодрама, комедия, DVDRip]

Reply to topic
 
Author
Message

Region_13 ®

Gender:

Longevity: 5 years 8 months

Posts: 783

Location: Мальдивы

Торрент-статистика

Post 16-Nov-2015 13:15

[Quote]

НЕ РОДИСЬ КРАСИВЫМ / Not Born Beautiful
Год выпуска: 2008
Страна: Россия
Жанр: мелодрама, комедия
Продолжительность: 90 мин. / 01:30
Перевод: Не требуется
Режиссер: Максим Паперник
Продюссер: Ада Ставиская
Сценарий: Максим Паперник
Бюджет: Неизвестно
Премьера в мире: 9 марта 2009
зрителям, достигшим 16 лет

В ролях: Татьяна Бондаренко , Дмитрий Паламарчук, Виталий Куклин, Антон Васильев , Дарья Лесникова (Юргенс), Егор Бакулин, Кира Крейлис-Петрова, Марина Чернышова.
 : Совладельцы рекламного агентства «Мажор» Роберт и Марина живут в предвкушении крупной сделки с японским бизнесменом Сасаки. Этот контракт, как и многие другие, заслуга исключительно Марины, которая вынуждена работать за двоих, пока ее коллега Роберт гений рекламы и невероятно удачливый бизнесмен с головой окунулся в омут тусовок и любовных авантюр.Перед самым приездом господина Сасаки Роберт неожиданно исчезает. Конечно, у него были враги и завистники, но могли ли они зайти так далеко? Марина бросается на поиски компаньона, и неожиданно под колесами ее машины оказывается грязный оборванец, отдельными чертами напоминающий его. К каким неожиданным последствиям приведет это столкновение?..
Качество: DVDRip
Формат: AVI
Видео кодек: XviD
Аудио кодек: MP3
Видео: XviD, 1921 Кбит/с, 640x336
Аудио: MP3, 2 ch, 128 Кбит/с

Скриншоты

                         

MI

Общее
Полное имя : E:\Ne.rodis.krasivym.2009.XviD.DVDRip.avi
Формат : AVI
Формат/Информация : Audio Video Interleave
Размер файла : 1,37 Гбайт
Продолжительность : 1 ч. 34 м.
Общий поток : 2062 Кбит/сек
Программа кодирования : VirtualDubMod 1.5.4.1 (build 2178/release)
Библиотека кодирования : VirtualDubMod build 2178/release
Видео
Идентификатор : 0
Формат : MPEG-4 Visual
Профиль формата : Advanced Simple@L5
Параметр BVOP формата : Нет
Параметр QPel формата : Нет
Параметр GMC формата : Без точки перехода
Параметр матрицы формата : Выборочная
Идентификатор кодека : XVID
Идентификатор кодека/Подсказка : XviD
Продолжительность : 1 ч. 34 м.
Битрейт : 1926 Кбит/сек
Ширина : 640 пикселей
Высота : 336 пикселей
Соотношение сторон : 1,905
Частота кадров : 25,000 кадров/сек
Цветовое пространство : YUV
Субдискретизация насыщенности : 4:2:0
Битовая глубина : 8 бит
Тип развёртки : Прогрессивная
Метод сжатия : С потерями
Бит/(Пиксели*Кадры) : 0.358
Размер потока : 1,28 Гбайт (93%)
Библиотека кодирования : XviD 1.2.0.dev47 (UTC 2006-11-01)
Аудио
Идентификатор : 1
Формат : MPEG Audio
Версия формата : Version 1
Профиль формата : Layer 3
Режим : Joint stereo
Расширение режима : MS Stereo
Идентификатор кодека : 55
Идентификатор кодека/Подсказка : MP3
Продолжительность : 1 ч. 34 м.
Вид битрейта : Постоянный
Битрейт : 128 Кбит/сек
Каналы : 2 канала
Частота : 48,0 КГц
Метод сжатия : С потерями
Размер потока : 86,9 Мбайт (6%)
Выравнивание : Соединение по промежуткам
Продолжительность промежутка : 80 мс. (2,00 видеокадра)
Время предзагрузки промежутка : 504 мс.
Библиотека кодирования : LAME3.97
Настройки программы : -m j -V 4 -q 2 -lowpass 17 -b 128
 

_________________
Other forum [Profile] [PM]
Display posts from previous:    
Reply to topic

The time now is: Today 14:48

All times are GMT + 3 Hours



You cannot post new topics in this forum
You cannot reply to topics in this forum
You cannot edit your posts in this forum
You cannot delete your posts in this forum
You cannot vote in polls in this forum
You cannot attach files in this forum
You cannot download files in this forum