Today is a free download without charge Download

Al Bano & Romina Power - Felicita (1985) Gold Serie [FLAC|image + .cue]<Pop>

Reply to topic
 
Author
Message

NarDok ®

Longevity: 7 years 9 months

Posts: 914

Торрент-статистика

Post 22-Oct-2015 22:42

[Quote]

Al Bano & Romina Power - Felicita (1985) Gold Serie - Год: 1985
Жанр: Pop
Лейбл: Ariola Express
Каталог #: 297 097
Продолжительность: 00:56:15
Кодек: FLAC
Битрейт: Lossless
Тип рипа: image + .cue+covers
Треклист:
01. Felicita (1983) [3:14]
02. Prima notte d'amore (Enlaces sur le sable) (1983) [2:54]
03. Sharazan (1983) [4:25]
04. L' amore e (1983) [3:59]
05. Meditando (1982) [3:12]
06. Canzone blu (1983) [3:27]
07. Magic oh magic (1984) [3:40]
08. Anche tu (1982) [3:29]
09. Perche (1982) [3:58]
10. Grazie (1983) [3:34]
11. Che angelo sei (1982) [3:41]
12. Angeli (1983) [3:31]
13. Tu soltanto tu (Mi hai fatto innamorare) (1982) [3:42]
14. Gli innamorati (1983) [2:52]
15. It's forever (1983) [2:59]
16. Ciao, Aufwiedersehen, Goodbye (1983) [3:37]

Отчёт ЕАС&#58;

Код:
Exact Audio Copy V1.0 beta 3 from 29. August 2011
Отчёт EAC об извлечении, выполненном 1. декабря 2014, 8:36
Al Bano & Romina Power / Felicita
Дисковод: hp      DVD-RAM SW830   Adapter: 0  ID: 0
Режим чтения                 : Достоверность
Использование точного потока : Да
Отключение кэша аудио        : Да
Использование указателей C2  : Нет
Коррекция смещения при чтении                     : 6
Способность читать области Lead-in и Lead-out     : Нет
Заполнение пропущенных сэмплов тишиной            : Да
Удаление блоков с тишиной в начале и конце        : Нет
При вычислениях CRC использовались нулевые сэмплы : Да
Интерфейс                                         : Встроенный Win32-интерфейс для Win NT/2000
Выходной формат          : Пользовательский кодировщик
Выбранный битрейт        : 896 kBit/s
Качество                 : Высокий
Добавление ID3-тега      : Нет
Утилита сжатия           : C:\Program Files (x86)\Exact Audio Copy\Flac\flac.exe
Дополнительные параметры : -V -8 %source%
TOC извлечённого CD
     Трек |   Старт  | Длительность | Начальный сектор | Конечный сектор
    ---------------------------------------------------------------------
       1  |  0:00.00 |    3:13.45   |           0      |      14519
       2  |  3:13.45 |    2:54.05   |       14520      |      27574
       3  |  6:07.50 |    4:25.17   |       27575      |      47466
       4  | 10:32.67 |    3:58.55   |       47467      |      65371
       5  | 14:31.47 |    3:11.68   |       65372      |      79764
       6  | 17:43.40 |    3:27.27   |       79765      |      95316
       7  | 21:10.67 |    3:40.00   |       95317      |     111816
       8  | 24:50.67 |    3:29.35   |      111817      |     127526
       9  | 28:20.27 |    3:57.38   |      127527      |     145339
      10  | 32:17.65 |    3:33.65   |      145340      |     161379
      11  | 35:51.55 |    3:41.27   |      161380      |     177981
      12  | 39:33.07 |    3:31.10   |      177982      |     193816
      13  | 43:04.17 |    3:42.18   |      193817      |     210484
      14  | 46:46.35 |    2:51.72   |      210485      |     223381
      15  | 49:38.32 |    2:59.15   |      223382      |     236821
      16  | 52:37.47 |    3:37.08   |      236822      |     253104
Характеристики диапазона извлечения и сообщения об ошибках
Выбранный диапазон
     Имя файла F:\torrent.ru\Al Bano & Romina Power - Felicita.wav
     Пиковый уровень 100.0 %
     Скорость извлечения 7.5 X
     Качество диапазона 100.0 %
     CRC теста 09993760
     CRC копии 09993760
     Копирование... OK
Ошибок не произошло
AccurateRip: сводка
Трек  1  : извлечено точно (доверие 4)  [66D70731]  (AR v2)
Трек  2  : извлечено точно (доверие 4)  [79177843]  (AR v2)
Трек  3  : извлечено точно (доверие 4)  [6D7E685E]  (AR v2)
Трек  4  : извлечено точно (доверие 4)  [99AEA989]  (AR v2)
Трек  5  : извлечено точно (доверие 3)  [58D159B5]  (AR v2)
Трек  6  : извлечено точно (доверие 3)  [4DAA6EC9]  (AR v2)
Трек  7  : извлечено точно (доверие 3)  [B4A615F1]  (AR v2)
Трек  8  : извлечено точно (доверие 3)  [73EEF4B6]  (AR v2)
Трек  9  : извлечено точно (доверие 3)  [AA756DEB]  (AR v2)
Трек 10  : извлечено точно (доверие 4)  [F60CC616]  (AR v2)
Трек 11  : извлечено точно (доверие 4)  [CCF90A90]  (AR v2)
Трек 12  : извлечено точно (доверие 4)  [5A8A6C78]  (AR v2)
Трек 13  : извлечено точно (доверие 4)  [06328EAD]  (AR v2)
Трек 14  : извлечено точно (доверие 3)  [26E6F28B]  (AR v2)
Трек 15  : извлечено точно (доверие 3)  [271024C6]  (AR v2)
Трек 16  : извлечено точно (доверие 3)  [924569B9]  (AR v2)
Все треки извлечены точно
Конец отчёта
==== Контрольная сумма отчёта F7BF907794094DED22A646670E308BF926BB0FFB8DB16F481280B80DD1A50F39 ====

Отчёт auCDtect Task manager&#58;

Код:
-----------------------
DON'T MODIFY THIS FILE
-----------------------
PERFORMER: auCDtect Task Manager, ver. 1.6.0 RC1 build 1.6.0.1
Copyright (c) 2008-2010 y-soft. All rights reserved
http://y-soft.org
ANALYZER: auCDtect: CD records authenticity detector, version 0.8.2
Copyright (c) 2004 Oleg Berngardt. All rights reserved.
Copyright (c) 2004 Alexander Djourik. All rights reserved.
FILE: Al Bano & Romina Power - Felicita(1985).flac
  Size: 369575554 Hash: 5AE3AC5D3F8E13DA24C8A8339B354262 Accuracy: -m0
  Conclusion: CDDA 100%
  Signature: BC0FD91AC178DC12E5023FD15964EF6602D199A9

_________________

Other forum [Profile] [PM]
Display posts from previous:    
Reply to topic

The time now is: Today 22:13

All times are GMT + 3 Hours



You cannot post new topics in this forum
You cannot reply to topics in this forum
You cannot edit your posts in this forum
You cannot delete your posts in this forum
You cannot vote in polls in this forum
You cannot attach files in this forum
You cannot download files in this forum