Today is a free download without charge Download

Doom (2015) WEBRip [H.264/1080p-LQ] [60 fps] [Gameplay Demo]

Reply to topic
 
Author
Message

Omen ®

Longevity: 6 years 6 months

Posts: 181112

Торрент-статистика

Post 23-Aug-2015 18:15

[Quote]

Doom
[Gameplay Demo]
- Разработчик: id Software
Жанр: Action (Shooter) / 3D / 1st Person
Издатель в России: 1С-СофтКлаб
Издатель: ZeniMax Media
Дата выхода игры: в разработке, запланирована на весна 2016 г.
Платформы: Xbox One, PS4, PC,
Описание:
Исполнительный продюсер перезапуска серии DOOM Марти Стрэттон в интервью с порталом GameSpot заявил, что id Software нацелена на создание игры в разрешении 1080p и с 60FPS. Марти отметил, что команда старается сделать "самый красивый шутер в мире, который будет работать в разрешении Full HD с частотой 60 кадров в секунду". По словам Стрэттона, разработчики пытаются добиться таких цифр для того, чтобы игроки чувствовали себя максимально комфортно и ни на что не отвлекались. Кроме этого Марти также отметил, что несмотря на наличие у нового Doom многопользовательского режима, поддержки киберспортивных состязаний в игре не будет.
Напомним, что перезапуск знаменитой серии о приключениях безымянного морпеха, который сражается с ордами чудовищных демонов, выйдет уже весной следующего года в версиях для PC, Xbox One и PlayStation 4.
Продолжительность: 00:07:58
Качество видео: WEBRip
Перевод: Отсутствует
Видео: AVC/H.264, 1920х1080, ~4967 Кбит/сек
Аудио: AAC, 2 ch, 126 Кбит/сек, CBR

Mediainfo:

Код:
Общее
Полное имя                               : X:\Films\DOOM 4 GAMEPLAY 60FPS 1080p - Doom Gameplay Trailer.mp4
Формат                                   : MPEG-4
Профиль формата                          : Base Media
Идентификатор кодека                     : isom
Размер файла                             : 291 Мбайт
Продолжительность                        : 7 м. 58 с.
Общий поток                              : 5104 Кбит/сек
Программа кодирования                    : Lavf56.19.100
Видео
Идентификатор                            : 1
Формат                                   : AVC
Формат/Информация                        : Advanced Video Codec
Профиль формата                          : [url=mailto:High@L4.2]High@L4.2[/url]
Параметр CABAC формата                   : Да
Параметр ReFrames формата                : 3 кадра
Идентификатор кодека                     : avc1
Идентификатор кодека/Информация          : Advanced Video Coding
Продолжительность                        : 7 м. 58 с.
Битрейт                                  : 4967 Кбит/сек
Ширина                                   : 1920 пикселей
Высота                                   : 1080 пикселей
Соотношение сторон                       : 16:9
Режим частоты кадров                     : Постоянный
Частота кадров                           : 60,000 кадров/сек
Цветовое пространство                    : YUV
Субдискретизация насыщенности            : 4:2:0
Битовая глубина                          : 8 бит
Тип развёртки                            : Прогрессивная
Бит/(Пиксели*Кадры)                      : 0.040
Размер потока                            : 283 Мбайт (97%)
Аудио
Идентификатор                            : 2
Формат                                   : AAC
Формат/Информация                        : Advanced Audio Codec
Профиль формата                          : LC
Идентификатор кодека                     : 40
Продолжительность                        : 7 м. 58 с.
Вид битрейта                             : Постоянный
Битрейт                                  : 126 Кбит/сек
Каналы                                   : 2 канала
Расположение каналов                     : Front: L R
Частота                                  : 44,1 КГц
Метод сжатия                             : С потерями
Размер потока                            : 7,17 Мбайт (2%)
Скриншоты:
       
Other forum [Profile] [PM]
Display posts from previous:    
Reply to topic

The time now is: Today 02:59

All times are GMT + 3 Hours



You cannot post new topics in this forum
You cannot reply to topics in this forum
You cannot edit your posts in this forum
You cannot delete your posts in this forum
You cannot vote in polls in this forum
You cannot attach files in this forum
You cannot download files in this forum