Today is a free download without charge Download

Прогулка по Бангкоку / On a marché sur Bangkok (Оливье Барру / Olivier Baroux) [2014 г., комедия, HDRip] MVO

Reply to topic
 
Author
Message

Clavik ®

Gender:

Longevity: 5 years 10 months

Posts: 1525

Location: Украина

Торрент-статистика

Post 26-Jul-2015 09:15

[Quote]

--Прогулка по Бангкоку / On a marché sur Bangkok-- Производство: Франция, Canal+ [fr], Cine, Eskwad, Pathe, TF1, TF1 Films Production, TMC
Год выпуска: 2014 г.
Жанр: комедия
Продолжительность: 01:33:07--Премьера (мир): 23 августа 2014--Перевод: Профессиональный (многоголосый, закадровый)--Режиссер: Оливье Барру / Olivier Baroux--В ролях: Кад Мерад, Элис Тальони, Питер Койот, Клод Перрон, Этьен Шико, Мишель Омон, Клер Надо, Себастьян Маркс, Кейт Моран--Описание: Аполлон 11, 21 июля 1969 года человек ступил на Луну. Астронавт Нил Армстронг произнес фразу, ставшую легендарной: "Один маленький шаг для человека, но гигантский скачок для человечества..." Но все ли нам рассказали об этом дне? Серж Ренарт, тележурналист и Наташа Бисон, военный корреспондент, объединяются, чтобы, расследовать это дело. Искать разгадку им предстоит в столице Тайланда...-- --Качество видео: HDRip
Контейнер: AVI
Видео кодек: XviD
Аудио кодек: AC3
Видео: 720x384 (1.88:1), 24.000 fps, XviD build 50 ~1899 kbps avg, 0.29 bit/pixel
Аудио: 48 kHz, AC3 Dolby Digital, 2/0 (L,R) ch, ~192 kbps
Cубтитры: Отсутствуют-

MediaInfo

Общее
Полное имя : E:\T2\Progylka.po.Bankoky.2014.P.HDRip.avi
Формат : AVI
Формат/Информация : Audio Video Interleave
Размер файла : 1,37 Гбайт
Продолжительность : 1 ч. 33 м.
Общий поток : 2101 Кбит/сек
Программа кодирования : VirtualDubMod 1.5.10.2 (build 2540/release)
Библиотека кодирования : VirtualDubMod build 2540/release
Видео
Идентификатор : 0
Формат : MPEG-4 Visual
Профиль формата : Advanced Simple@L5
Параметр BVOP формата : 2
Параметр QPel формата : Нет
Параметр GMC формата : Без точки перехода
Параметр матрицы формата : Default (MPEG)
Идентификатор кодека : XVID
Идентификатор кодека/Подсказка : XviD
Продолжительность : 1 ч. 33 м.
Битрейт : 1899 Кбит/сек
Ширина : 720 пикселей
Высота : 384 пикселя
Соотношение сторон : 1,85:1
Частота кадров : 24,000 кадра/сек
Цветовое пространство : YUV
Субдискретизация насыщенности : 4:2:0
Битовая глубина : 8 бит
Тип развёртки : Прогрессивная
Метод сжатия : С потерями
Бит/(Пиксели*Кадры) : 0.286
Размер потока : 1,24 Гбайт (90%)
Библиотека кодирования : XviD 1.2.1 (UTC 2008-12-04)
Аудио
Идентификатор : 1
Формат : AC-3
Формат/Информация : Audio Coding 3
Расширение режима : CM (complete main)
Параметр Endianness формата : Big
Идентификатор кодека : 2000
Продолжительность : 1 ч. 33 м.
Вид битрейта : Постоянный
Битрейт : 192 Кбит/сек
Каналы : 2 канала
Расположение каналов : Front: L R
Частота : 48,0 КГц
Битовая глубина : 16 бит
Метод сжатия : С потерями
Размер потока : 128 Мбайт (9%)
Выравнивание : Разделение по промежуткам
Продолжительность промежутка : 42 мс. (1,00 видеокадр)
Время предзагрузки промежутка : 500 мс.

Скриншоты

           Трейлер

_________________


In forum [Profile] [PM]
Display posts from previous:    
Reply to topic

The time now is: Today 00:44

All times are GMT + 3 Hours



You cannot post new topics in this forum
You cannot reply to topics in this forum
You cannot edit your posts in this forum
You cannot delete your posts in this forum
You cannot vote in polls in this forum
You cannot attach files in this forum
You cannot download files in this forum